<?xml version="1.0" standalone="no"?>
<!DOCTYPE svg PUBLIC "-//W3C//DTD SVG 1.1//EN" "http://www.w3.org/Graphics/SVG/1.1/DTD/svg11.dtd" >
<svg xmlns="http://www.w3.org/2000/svg">
<metadata>Generated by IcoMoon</metadata>
<defs>
<font id="tutor" horiz-adv-x="1024">
<font-face units-per-em="1024" ascent="960" descent="-64" />
<missing-glyph horiz-adv-x="1024" />
<glyph unicode="&#x20;" horiz-adv-x="512" d="" />
<glyph unicode="&#xe900;" glyph-name="down" d="M174.080 634.574h675.84c22.63 0 38.4-10.957 47.104-32.768s5.222-40.55-10.445-56.32l-337.92-337.92c-10.445-10.445-22.733-15.667-36.659-15.667-14.029 0-26.214 5.222-36.659 15.667l-337.92 337.92c-15.667 15.667-19.251 34.509-10.445 56.32 8.704 21.811 24.474 32.768 47.104 32.768z" />
<glyph unicode="&#xe901;" glyph-name="up" d="M849.92 226.715h-675.84c-22.63 0-38.4 10.957-47.104 32.768s-5.222 40.55 10.445 56.32l337.92 337.92c10.445 10.445 22.733 15.667 36.659 15.667 14.029 0 26.214-5.222 36.659-15.667l337.92-337.92c15.667-15.667 19.251-34.509 10.445-56.32-8.704-21.914-24.474-32.768-47.104-32.768z" />
<glyph unicode="&#xe902;" glyph-name="angle-up" d="M551.936 741.070l455.68-455.68c10.854-10.957 16.384-24.269 16.384-39.936s-5.53-28.979-16.486-39.936l-51.712-51.712c-10.957-10.957-24.269-16.794-39.936-17.613s-28.979 4.301-39.936 15.258l-363.93 364.134-364.032-364.032c-10.957-10.957-24.269-16.077-39.936-15.258s-28.979 6.656-39.936 17.613l-51.712 51.712c-10.957 10.957-16.486 24.269-16.486 39.936s5.53 28.979 16.486 39.936l455.68 455.68c10.957 12.595 24.269 18.739 39.936 18.739 15.667-0.102 28.979-6.349 39.936-18.842z" />
<glyph unicode="&#xe903;" glyph-name="angle-right" d="M805.069 408.065l-455.68-455.68c-10.957-10.957-24.269-16.486-39.936-16.486s-28.979 5.53-39.936 16.486l-51.712 51.712c-10.957 10.957-16.794 24.269-17.613 39.936s4.301 28.979 15.258 39.936l364.134 364.032-364.032 364.032c-10.957 10.957-16.077 24.269-15.258 39.936s6.656 28.979 17.613 39.936l51.712 51.712c10.854 10.854 24.166 16.384 39.834 16.384s28.979-5.53 39.936-16.486l455.68-455.68c12.493-10.957 18.739-24.269 18.739-39.936 0-15.565-6.246-28.877-18.739-39.834z" />
<glyph unicode="&#xe904;" glyph-name="audio-volume" d="M459.21 838.444c-13.36 5.521-28.746 2.439-39.112-7.898l-217.022-218.402h-167.166c-19.907 0-35.91-16.063-35.91-35.912v-259.189c0-19.849 16.003-35.91 35.91-35.91h166.372l217.934-218.403c6.87-6.899 16.121-10.542 25.399-10.542 4.58 0 9.338 0.881 13.713 2.731 13.477 5.521 22.199 18.647 22.199 33.15v717.197c-0.031 14.533-8.839 27.658-22.317 33.178zM832.944 447.652c0 134.54-79.956 255.722-203.751 308.841-18.235 7.81-39.404-0.618-47.157-18.881-7.839-18.204 0.587-39.317 18.821-47.128 97.486-41.754 160.294-137.068 160.294-242.832 0-105.297-62.573-200.375-159.502-242.159-18.175-7.869-26.601-28.98-18.763-47.157 5.844-13.595 19.086-21.698 33.092-21.698 4.64 0 9.515 0.939 14.154 2.966 123.267 53.117 202.812 174.035 202.812 308.049zM674.091 447.711c0 71.088-42.254 134.953-107.763 162.73-18.175 7.606-39.288-0.763-46.98-19.057-7.869-18.263 0.675-39.346 18.91-47.099 38.878-16.442 63.953-54.379 63.953-96.576 0-41.696-24.841-79.457-63.188-96.166-18.235-7.869-26.545-29.011-18.705-47.215 5.902-13.537 19.086-21.582 32.975-21.582 4.756 0 9.69 0.939 14.33 2.995 64.653 28.073 106.469 91.673 106.469 161.97zM690.21 898.582c-18.235 7.898-39.464-0.558-47.157-18.823-7.869-18.235 0.558-39.346 18.821-47.127 154.275-66.214 253.934-217.317 253.934-385.040 0-167.105-99.279-317.914-253.081-384.246-18.235-7.869-26.663-28.951-18.881-47.157 5.902-13.595 19.086-21.698 32.975-21.698 4.758 0 9.691 0.939 14.33 2.965 180.085 77.635 296.51 254.373 296.51 450.168 0.027 196.408-116.691 373.44-297.451 450.959z" />
<glyph unicode="&#xe905;" glyph-name="clock" d="M946.197 653.277c-51.534 120.167-139.105 207.561-260.254 259.239-60.551 25.829-123.988 39.022-190.262 39.022-66.262 0-129.232-13.069-189.716-39.022-120.145-51.541-208.105-138.879-259.73-259.239-25.869-60.3-38.478-123.474-38.478-189.748 0-66.287 12.609-129.985 38.478-190.297 51.625-120.36 139.596-208.222 259.73-259.776 60.495-25.953 123.452-39.009 189.716-39.009s129.711 13.193 190.252 39.009c121.148 51.68 208.72 139.62 260.265 259.776 25.947 60.506 39.014 124.010 39.014 190.297 0 66.274-13.055 129.243-39.015 189.748zM868.18 247.574c-38.365-65.806-90.924-118.012-157.119-156.611-65.795-38.372-137.885-57.723-215.367-57.723-58.248 0-113.829 11.22-166.742 34.209-52.912 22.977-98.597 53.185-136.813 91.397-38.217 38.223-68.634 84.362-91.379 137.374-22.678 52.819-33.668 109.038-33.668 167.307 0 77.507 19.040 149.245 57.189 214.869 38.285 65.864 90.855 118.125 156.583 156.612 65.716 38.485 137.339 57.734 214.82 57.734 77.494 0 149.571-19.362 215.367-57.734 66.195-38.6 118.641-90.86 157.119-156.611 38.478-65.739 57.713-137.363 57.713-214.869 0-77.509-19.108-149.735-57.702-215.955zM524.274 466.88v277.053c0 16.579-14.226 29.951-30.555 29.951-15.271 0-28.97-13.372-28.97-29.951v-281.331c0-0.537 1.056-2.682 1.056-4.281-1.056-9.629 1.585-17.651 7.901-24.075l157.501-159.916c10.539-10.701 30.024-10.701 40.556 0 12.112 12.3 11.315 30.146 0 41.717l-147.49 150.832z" />
<glyph unicode="&#xe906;" glyph-name="document-alt" d="M867.331 817.779h-28.402v-714.292c0-47.452-37.734-86.078-84.090-86.078h-516.617v-26.478c0-30.321 24.040-54.929 53.66-54.929h575.348c29.619 0 53.659 24.608 53.659 54.929v771.919c0.001 30.32-23.938 54.929-53.557 54.929zM465.727 49.779h287.716c29.624 0 53.668 24.608 53.668 54.927v771.921c0 30.32-24.044 54.929-53.668 54.929h-383.385v-18.171c0.202-1.869 0.304-3.842 0.304-5.815v-150.459c0-42.677-33.885-77.358-75.581-77.358h-147.003c-1.522 0-3.145 0.104-4.667 0.208h-18.667v-575.255c0-30.319 24.044-54.927 53.668-54.927h287.615zM476.582 236.476h-187.584c-14 0-25.363 11.631-25.363 25.959 0 14.33 11.363 25.959 25.363 25.959h187.685c14 0 25.363-11.629 25.363-25.959 0-14.328-11.464-25.959-25.464-25.959zM664.267 368.97h-375.269c-14 0-25.363 11.631-25.363 25.959 0 14.33 11.363 25.959 25.363 25.959h375.269c14 0 25.363-11.629 25.363-25.959 0-14.328-11.363-25.959-25.363-25.959zM288.999 561.587h375.269c14 0 25.363-11.63 25.363-25.959s-11.363-25.959-25.363-25.959h-375.269c-14 0-25.363 11.63-25.363 25.959s11.363 25.959 25.363 25.959zM120.033 732.445h155.786c0.108 0 0.323 0 0.43 0 26.018 0.215 47.091 21.283 47.306 47.295 0 0.107 0 0.322 0 0.43v155.86c0 14.404-11.826 23.97-24.082 23.97-5.913 0-11.826-2.15-16.772-7.094l-179.655-179.615c-15.052-15.049-4.408-40.846 16.987-40.846z" />
<glyph unicode="&#xe907;" glyph-name="facebook" d="M402.022-63.999v458.035h-154.010v181.965h154.010v143.974c0 75.981 21.299 134.963 64 177.050 42.701 41.984 99.328 62.976 169.984 62.976 57.344 0 104.038-2.662 139.981-7.987v-161.997h-96.051c-36.045 0-60.723-7.987-74.035-23.962-10.65-13.312-15.974-34.714-15.974-64v-125.952h169.984l-23.962-181.965h-145.92v-458.138h-188.006z" />
<glyph unicode="&#xe908;" glyph-name="fav-full" d="M141.439 926.152c8.271 12.642 19.41 21.887 33.391 27.752 8.904 4.056 18.236 6.088 27.991 6.088v0.009h666.562c9.751 0 19.074-2.032 27.98-6.088 13.99-5.86 25.124-15.117 33.391-27.752 8.265-12.635 12.404-26.616 12.404-41.961v-872.4c0-15.349-4.139-29.326-12.404-41.973-8.267-12.633-19.401-21.887-33.391-27.745-8.897-4.056-18.229-6.083-27.98-6.083-19.936 0-37.524 7.448-52.792 22.326l-280.491 286.981-280.491-286.988c-14.843-14.415-32.44-21.636-52.786-21.636-10.604 0-19.934 1.792-27.991 5.402-13.981 5.858-25.12 15.112-33.391 27.761-8.265 12.63-12.395 26.609-12.395 41.956v872.388c-0.002 15.344 4.137 29.326 12.393 41.961z" />
<glyph unicode="&#xe909;" glyph-name="fav-line" d="M141.439 926.152c8.271 12.642 19.41 21.887 33.391 27.752 8.904 4.056 18.236 6.088 27.991 6.088v0.009h666.562c9.751 0 19.074-2.032 27.98-6.088 13.99-5.86 25.124-15.117 33.391-27.752 8.265-12.635 12.404-26.616 12.404-41.961v-872.4c0-15.349-4.139-29.326-12.404-41.973-8.267-12.633-19.401-21.887-33.391-27.745-8.897-4.056-18.229-6.083-27.98-6.083-19.936 0-37.524 7.448-52.792 22.326l-280.491 286.981-280.491-286.988c-14.843-14.415-32.44-21.636-52.786-21.636-10.604 0-19.934 1.792-27.991 5.402-13.981 5.858-25.12 15.112-33.391 27.761-8.265 12.63-12.395 26.609-12.395 41.956v872.388c-0.002 15.344 4.137 29.326 12.393 41.961zM210.453 32.794l325.646 332.298 56.604-57.519 269.036-274.78v840.566h-651.286v-840.566z" />
<glyph unicode="&#xe90a;" glyph-name="google" d="M1000.346 522.343c5.53-30.31 8.294-59.187 8.294-86.733 0-96.358-20.685-182.374-61.952-258.048s-99.43-134.861-174.49-177.562c-75.059-42.598-161.382-64-259.072-64-92.262 0-177.562 23.040-256 69.12s-140.698 108.339-186.88 186.88c-46.080 78.438-69.12 163.738-69.12 256 0 92.16 23.040 177.562 69.12 256s108.339 140.698 186.88 186.88c78.438 46.080 163.738 69.12 256 69.12 133.427 0 247.706-44.749 342.63-134.144l-138.342-134.144c-44.032 42.598-97.075 68.096-158.925 76.39-57.856 8.294-114.893 0-171.315-24.781-56.422-24.883-101.888-62.054-136.294-111.616-37.171-53.658-55.706-114.893-55.706-183.706 0-59.187 14.438-113.254 43.315-162.099s67.379-88.064 115.61-117.658c48.128-29.594 101.171-44.339 158.925-44.339 61.952 0 116.326 13.722 163.123 41.267 37.171 22.016 68.096 51.61 92.877 88.781 17.92 30.208 29.594 60.518 35.123 90.829h-291.021v177.562h487.219z" />
<glyph unicode="&#xe90b;" glyph-name="grid" d="M456.98 937.266c0 12.561-10.174 22.735-22.735 22.735h-411.51c-12.561 0-22.735-10.174-22.735-22.735v-411.51c0-12.561 10.174-22.735 22.735-22.735h411.51c12.561 0 22.735 10.174 22.735 22.735v411.51zM411.51 548.491h-366.039v366.039h366.039v-366.039zM1023.091 937.266c0 12.561-10.174 22.735-22.735 22.735h-411.51c-12.561 0-22.735-10.174-22.735-22.735v-411.51c0-12.561 10.174-22.735 22.735-22.735h411.51c12.561 0 22.735 10.174 22.735 22.735v411.51zM977.62 548.491h-366.039v366.039h366.039v-366.039zM456.98 371.156c0 12.561-10.174 22.735-22.735 22.735h-411.51c-12.561 0-22.735-10.174-22.735-22.735v-411.51c0-12.561 10.174-22.735 22.735-22.735h411.51c12.561 0 22.735 10.174 22.735 22.735v411.51zM411.51-15.345h-366.039v363.766h366.039v-363.766zM1023.091 371.156c0 12.561-10.174 22.735-22.735 22.735h-411.51c-12.561 0-22.735-10.174-22.735-22.735v-411.51c0-12.561 10.174-22.735 22.735-22.735h411.51c12.561 0 22.735 10.174 22.735 22.735v411.51zM977.62-15.345h-366.039v363.766h366.039v-363.766z" />
<glyph unicode="&#xe90c;" glyph-name="group" d="M863.277 485.304c28.24 19.844 46.939 52.854 46.939 90.061 0 60.868-49.228 110.096-110.096 110.096s-110.096-49.228-110.096-110.096c0-37.207 18.508-70.217 46.939-90.061-24.233-8.396-46.366-21.37-65.065-38.161-25.759 21.943-56.097 38.734-89.298 48.656 40.26 24.423 67.355 68.881 67.355 119.445 0 77.086-62.394 139.48-139.48 139.48s-139.48-62.585-139.48-139.48c0-50.564 26.904-95.022 67.355-119.445-32.819-9.922-62.776-26.522-88.344-48.083-18.699 16.409-40.451 29.194-64.302 37.398 28.24 19.844 46.939 52.854 46.939 90.061 0 60.868-49.228 110.096-110.096 110.096s-110.096-49.228-110.096-110.096c0-37.207 18.508-70.217 46.939-90.061-75.751-26.141-130.131-98.075-130.131-182.603v-12.593c0-0.382 0.382-0.763 0.763-0.763h233.358c-1.336-10.494-2.099-21.37-2.099-32.246v-12.975c0-56.097 45.412-101.51 101.51-101.51h295.752c56.097 0 101.51 45.412 101.51 101.51v12.975c0 10.876-0.763 21.752-2.099 32.246h234.884c0.382 0 0.763 0.382 0.763 0.763v12.593c-0.382 84.719-54.571 156.653-130.321 182.794zM720.553 575.556c0 43.886 35.681 79.567 79.567 79.567s79.567-35.681 79.567-79.567c0-43.313-34.918-78.613-78.040-79.567-0.572 0-0.954 0-1.526 0s-0.954 0-1.526 0c-43.313 0.763-78.040 36.063-78.040 79.567zM401.141 615.244c0 60.104 48.847 108.951 108.951 108.951s108.951-48.847 108.951-108.951c0-58.005-45.603-105.517-102.654-108.76-2.099 0-4.198 0-6.297 0s-4.198 0-6.297 0c-57.051 3.244-102.654 50.755-102.654 108.76zM142.406 575.556c0 43.886 35.681 79.567 79.567 79.567s79.567-35.681 79.567-79.567c0-43.313-34.918-78.613-78.040-79.567-0.572 0-0.954 0-1.526 0s-0.954 0-1.526 0c-43.122 0.763-78.040 36.063-78.040 79.567zM268.721 319.874h-208.553c8.586 81.284 77.277 145.014 160.66 145.586 0.382 0 0.763 0 1.145 0s0.763 0 1.145 0c39.688-0.191 75.941-14.883 103.99-38.734-27.476-29.766-47.893-66.401-58.387-106.852zM729.139 243.932c0-39.116-31.865-70.98-70.98-70.98h-295.752c-39.116 0-70.98 31.865-70.98 70.98v12.975c0 118.491 94.64 215.422 212.369 218.856 2.099-0.191 4.389-0.191 6.487-0.191s4.389 0 6.487 0.191c117.728-3.435 212.369-100.365 212.369-218.856v-12.975zM751.845 319.874c-10.494 40.26-30.529 76.323-57.815 106.089 28.24 24.423 64.875 39.116 104.944 39.497 0.382 0 0.763 0 1.145 0s0.763 0 1.145 0c83.383-0.572 152.074-64.302 160.66-145.586h-210.079z" />
<glyph unicode="&#xe90d;" glyph-name="linkedin" d="M123.392 713.115c-33.485 0-62.464 12.186-86.835 36.557s-36.557 53.35-36.557 86.938c0 33.485 12.186 62.464 36.557 86.835s53.35 36.557 86.835 36.557c33.485 0 62.464-12.186 86.835-36.557s36.557-53.35 36.557-86.835c0-33.485-12.186-62.464-36.557-86.835-24.371-24.474-53.248-36.659-86.835-36.659zM228.557-63.999h-212.582v683.418h212.582v-683.418zM1024-63.999h-212.582v333.722c0 54.886-4.608 94.515-13.722 118.886-16.794 41.165-49.562 61.747-98.304 61.747s-83.046-18.33-102.81-54.886c-15.258-27.443-22.835-67.789-22.835-121.139v-338.33h-210.33v683.418h203.469v-93.696h2.253c15.258 30.515 39.629 55.603 73.114 75.469 36.557 24.371 79.258 36.557 128 36.557 99.021 0 168.346-31.232 207.974-93.696 30.515-50.278 45.67-128 45.67-233.165v-374.886z" />
<glyph unicode="&#xe90e;" glyph-name="lock" d="M791.744 618.986h-48.716v97.433c0 136.406-107.176 243.582-243.582 243.582s-243.582-107.176-243.582-243.582v-97.433h-48.716c-53.588 0-97.433-43.845-97.433-97.433v-487.164c0-53.588 43.845-97.433 97.433-97.433h584.597c53.588 0 97.433 43.845 97.433 97.433v487.164c0 53.588-43.845 97.433-97.433 97.433zM499.446 180.538c-53.588 0-97.433 43.845-97.433 97.433s43.845 97.433 97.433 97.433c53.588 0 97.433-43.845 97.433-97.433s-43.845-97.433-97.433-97.433zM650.467 618.986h-302.042v97.433c0 82.818 68.203 151.021 151.021 151.021s151.021-68.203 151.021-151.021v-97.433z" />
<glyph unicode="&#xe90f;" glyph-name="mark" d="M347.955 82.023l-333.926 331.981c-9.421 9.318-14.029 21.299-14.029 36.045 0 14.643 4.608 26.624 14.029 36.045l74.035 71.987c9.318 10.65 20.992 15.974 35.021 15.974s26.317-5.325 36.966-15.974l223.949-224.051 480.051 480.051c10.65 10.65 23.040 15.974 36.966 15.974s25.702-5.325 35.021-15.974l74.035-71.987c9.318-9.318 14.029-21.299 14.029-36.045 0-14.643-4.71-26.726-14.029-36.045l-590.029-587.981c-9.421-10.752-21.402-15.974-36.045-15.974s-26.726 5.222-36.045 15.974z" />
<glyph unicode="&#xe910;" glyph-name="minus" d="M64 512.001h853.333c35.346 0 64-28.654 64-64s-28.654-64-64-64h-853.333c-35.346 0-64 28.654-64 64s28.654 64 64 64z" />
<glyph unicode="&#xe911;" glyph-name="mortarboard" d="M702.009 81.893c-8.908 2.261-17.931-3.19-20.141-12.082l-16.618-66.474c-2.244-8.923 3.19-17.931 12.098-20.159 1.346-0.349 2.709-0.499 4.039-0.499 7.445 0 14.209 5.036 16.104 12.581l16.618 66.474c2.226 8.908-3.192 17.931-12.1 20.159zM498.562 414.765c2.16 0 4.322 0.415 6.349 1.262l182.807 75.649c8.476 3.507 12.497 13.229 8.992 21.705-3.507 8.493-13.263 12.482-21.721 9.007l-176.427-73.022-465.324 192.544v5.517c0 9.173-7.445 16.618-16.618 16.618s-16.62-7.445-16.62-16.618v-16.618c0-6.731 4.055-12.797 10.271-15.356l481.944-199.425c2.025-0.847 4.187-1.264 6.347-1.264zM696.26 244.506c-4.055 8.226-13.993 11.617-22.252 7.545-31.559-15.605-84.275-33.752-158.825-36.23v149.088c0 9.173-7.445 16.618-16.618 16.618s-16.618-7.445-16.618-16.618v-148.938c-206.354 6.581-272.945 131.587-282.519 152.394v112.874c0 9.173-7.445 16.618-16.618 16.618s-16.618-7.445-16.618-16.618v-116.331c0-2.111 0.399-4.205 1.18-6.181 2.892-7.196 73.622-176.623 331.195-176.623 90.024 0 153.109 21.837 190.168 40.152 8.238 4.070 11.613 14.024 7.525 22.25zM747.843 65.771c-9.19 0-16.618-7.445-16.618-16.618v-49.856c0-9.173 7.428-16.618 16.618-16.618s16.618 7.445 16.618 16.618v49.856c0 9.173-7.428 16.618-16.618 16.618zM980.506 664.046c-9.19 0-16.618-7.445-16.618-16.618v-5.484l-199.425-82.080v30.031l222.392 92.035c6.215 2.559 10.271 8.626 10.271 15.356s-4.055 12.78-10.254 15.356l-481.962 199.423c-4.072 1.679-8.626 1.679-12.696 0l-481.944-199.425c-6.216-2.577-10.271-8.626-10.271-15.356s4.055-12.797 10.271-15.356l481.944-199.425c2.027-0.847 4.187-1.264 6.349-1.264s4.322 0.415 6.349 1.264l174.265 72.108c8.493 3.49 12.515 13.212 9.007 21.705-3.507 8.476-13.229 12.482-21.705 8.992l-167.918-69.468-438.485 181.444 438.485 181.444 438.485-181.444-190.799-78.956-182.756 68.237c0.964 3.457 1.546 7.013 1.546 10.719 0 27.953-29.199 49.856-66.474 49.856s-66.474-21.904-66.474-49.856c0-27.953 29.199-49.856 66.474-49.856 16.636 0 31.476 4.538 43.009 11.849l189.652-70.813v-409.421c-19.294-6.896-33.238-25.16-33.238-46.799 0-27.487 22.369-49.856 49.856-49.856s49.856 22.369 49.856 49.856c0 21.637-13.942 39.901-33.238 46.799v94.328c47.712 36.013 64.813 83.975 65.561 86.101 0.598 1.745 0.913 3.589 0.913 5.434v116.331c0 9.173-7.428 16.618-16.618 16.618s-16.618-7.445-16.618-16.618v-113.257c-2.875-7.046-12.863-28.767-33.238-50.205v206.144l222.376 91.519c6.232 2.559 10.287 8.641 10.287 15.372v16.618c0 9.175-7.428 16.62-16.618 16.62zM498.562 680.666c-20.291 0-33.238 9.839-33.238 16.618 0 6.781 12.945 16.618 33.238 16.618s33.238-9.839 33.238-16.618c0-6.781-12.947-16.618-33.238-16.618zM747.843 115.628c-9.173 0-16.618 7.461-16.618 16.618s7.445 16.618 16.618 16.618c9.173 0 16.618-7.461 16.618-16.618 0-9.155-7.445-16.618-16.618-16.618zM813.819 69.81c-2.226 8.89-11.268 14.326-20.141 12.082-8.908-2.226-14.326-11.251-12.098-20.159l16.618-66.474c1.895-7.545 8.659-12.581 16.104-12.581 1.33 0 2.691 0.15 4.039 0.499 8.908 2.226 14.326 11.235 12.098 20.159l-16.62 66.474z" />
<glyph unicode="&#xe912;" glyph-name="offer" d="M932.274 434.787c-4.104 8.397-4.104 18.028 0 26.423l38.043 77.826c21.181 43.333 4.399 94.981-38.207 117.587l-76.521 40.601c-8.256 4.379-13.916 12.172-15.531 21.375l-14.966 85.325c-8.333 47.506-52.278 79.43-100.025 72.674l-85.771-12.133c-9.258-1.307-18.412 1.669-25.128 8.166l-62.259 60.229c-34.667 33.537-88.974 33.539-123.639 0l-62.261-60.235c-6.718-6.499-15.872-9.469-25.128-8.166l-85.771 12.133c-47.763 6.76-91.692-25.168-100.025-72.674l-14.966-85.321c-1.616-9.204-7.276-16.996-15.529-21.376l-76.521-40.601c-42.606-22.604-59.388-74.256-38.207-117.589l38.041-77.824c4.104-8.397 4.104-18.028 0-26.423l-38.043-77.824c-21.181-43.333-4.399-94.981 38.207-117.587l76.521-40.601c8.256-4.379 13.916-12.172 15.531-21.375l14.966-85.325c7.586-43.247 44.67-73.577 87.289-73.573 4.198 0 8.457 0.295 12.738 0.9l85.771 12.133c9.25 1.313 18.41-1.669 25.128-8.166l62.259-60.229c17.336-16.77 39.573-25.154 61.819-25.152 22.239 0.002 44.49 8.385 61.819 25.152l62.261 60.229c6.718 6.497 15.874 9.465 25.128 8.166l85.771-12.133c47.769-6.758 91.692 25.168 100.025 72.674l14.968 85.321c1.616 9.204 7.276 16.996 15.529 21.376l76.521 40.601c42.606 22.604 59.388 74.256 38.207 117.589l-38.043 77.826zM904.537 291.343l-76.521-40.601c-24.397-12.947-41.129-35.973-45.901-63.179l-14.966-85.323c-2.819-16.073-17.679-26.869-33.842-24.588l-85.771 12.133c-27.353 3.875-54.419-4.929-74.272-24.132l-62.261-60.227c-11.726-11.344-30.1-11.344-41.831 0l-62.259 60.229c-16.778 16.231-38.713 25.026-61.611 25.026-4.196 0-8.425-0.295-12.661-0.895l-85.771-12.133c-16.149-2.283-31.021 8.515-33.842 24.588l-14.968 85.325c-4.773 27.206-21.504 50.234-45.903 63.177l-76.521 40.601c-14.416 7.648-20.094 25.122-12.928 39.783l38.043 77.826c12.129 24.815 12.129 53.276 0 78.091l-38.043 77.826c-7.166 14.661-1.488 32.134 12.928 39.783l76.521 40.601c24.397 12.947 41.129 35.973 45.901 63.179l14.966 85.323c2.821 16.073 17.679 26.871 33.842 24.588l85.771-12.133c27.343-3.871 54.419 4.929 74.272 24.132l62.261 60.229c11.726 11.344 30.1 11.344 41.831 0l62.259-60.229c19.852-19.205 46.925-28.003 74.272-24.132l85.771 12.133c16.151 2.285 31.023-8.515 33.842-24.588l14.966-85.325c4.773-27.206 21.504-50.234 45.903-63.177l76.521-40.601c14.416-7.648 20.094-25.122 12.928-39.783l-38.043-77.824c-12.129-24.813-12.129-53.278 0-78.091l38.043-77.824c7.168-14.665 1.49-32.14-12.926-39.789zM705.018 662.929c-11.485 11.487-30.112 11.487-41.6 0l-388.261-388.263c-11.487-11.487-11.487-30.112 0-41.6 5.744-5.744 13.272-8.616 20.799-8.616s15.057 2.871 20.799 8.616l388.261 388.261c11.491 11.489 11.491 30.112 0.002 41.601zM372.427 712.735c-59.472 0-107.857-48.385-107.857-107.857s48.385-107.857 107.857-107.857c59.472 0 107.857 48.385 107.857 107.857s-48.385 107.857-107.857 107.857zM372.427 555.854c-27.032 0-49.024 21.992-49.024 49.026 0 27.032 21.992 49.024 49.024 49.024s49.026-21.992 49.026-49.024c-0.002-27.034-21.994-49.026-49.026-49.026zM607.748 398.973c-59.472 0-107.857-48.385-107.857-107.857s48.385-107.857 107.857-107.857c59.472 0 107.857 48.385 107.857 107.857s-48.385 107.857-107.857 107.857zM607.748 242.091c-27.032 0-49.026 21.992-49.026 49.024s21.992 49.024 49.026 49.024c27.032 0 49.024-21.992 49.024-49.024s-21.992-49.024-49.024-49.024z" />
<glyph unicode="&#xe913;" glyph-name="cross" horiz-adv-x="1020" d="M983.896 164.596c17.379-17.379 25.399-37.431 25.399-62.83 0-24.063-8.021-46.789-25.399-65.504l-62.83-62.83c-18.715-17.379-40.104-25.399-65.504-25.399-24.063 0-45.452 8.021-62.83 25.399l-283.405 284.742-283.405-284.742c-17.379-17.379-37.431-25.399-62.83-25.399-24.063 0-46.789 8.021-65.504 25.399l-62.83 62.83c-17.379 18.715-25.399 40.104-25.399 65.504 0 24.063 8.021 45.452 25.399 62.83l283.405 283.405-282.068 283.405c-17.379 17.379-25.399 37.431-25.399 62.83 0 24.063 8.021 46.789 25.399 65.504l62.83 62.83c18.715 17.379 40.104 25.399 65.504 25.399 24.063 0 45.452-8.021 62.83-25.399l283.405-283.405 283.405 283.405c17.379 17.379 37.431 25.399 62.83 25.399 24.063 0 46.789-8.021 65.504-25.399l62.83-62.83c17.379-18.715 25.399-40.104 25.399-65.504 0-24.063-8.021-45.452-25.399-62.83l-284.742-283.405 283.405-283.405z" />
<glyph unicode="&#xe914;" glyph-name="plus" d="M426.667 512.001v362.667c0 35.346 28.654 64 64 64s64-28.654 64-64v-362.667h362.667c35.346 0 64-28.654 64-64s-28.654-64-64-64h-362.667v-362.667c0-35.346-28.654-64-64-64s-64 28.654-64 64v362.667h-362.667c-35.346 0-64 28.654-64 64s28.654 64 64 64h362.667z" />
<glyph unicode="&#xe915;" glyph-name="shopping-cart" d="M296.989 286.371h563.726c63.921 0 116.067 52.146 116.067 116.067v237.181c0 0.21 0 0.631 0 0.841 0 0.631 0 1.051 0 1.682 0 0.421 0 0.841-0.21 1.262 0 0.421-0.21 1.051-0.21 1.472s-0.21 0.841-0.21 1.262c-0.21 0.421-0.21 0.841-0.421 1.472-0.21 0.421-0.21 0.841-0.421 1.262s-0.21 0.841-0.421 1.262c-0.21 0.421-0.421 0.841-0.631 1.472-0.21 0.421-0.421 0.841-0.631 1.051-0.21 0.421-0.421 0.841-0.631 1.262s-0.421 0.631-0.631 1.051c-0.21 0.421-0.631 0.841-0.841 1.262s-0.421 0.631-0.841 1.051c-0.21 0.421-0.631 0.631-0.841 1.051s-0.631 0.631-0.841 1.051c-0.21 0.421-0.631 0.631-0.841 0.841-0.421 0.421-0.631 0.631-1.051 1.051-0.421 0.21-0.631 0.631-1.051 0.841s-0.841 0.631-1.262 0.841c-0.421 0.21-0.631 0.421-1.051 0.631s-0.841 0.421-1.262 0.841c-0.421 0.21-0.841 0.421-1.262 0.631s-0.841 0.421-1.262 0.631c-0.421 0.21-0.841 0.421-1.262 0.631s-0.841 0.21-1.262 0.421c-0.421 0.21-1.051 0.421-1.472 0.421s-0.841 0.21-1.051 0.21-1.051 0.21-1.682 0.21c-0.21 0-0.421 0.21-0.841 0.21l-714.487 98.615v99.667c0 1.051 0 2.103-0.21 2.944 0 0.21 0 0.421-0.21 0.841 0 0.631-0.21 1.262-0.21 1.892-0.21 0.631-0.21 1.051-0.421 1.682 0 0.421-0.21 0.631-0.21 1.051-0.21 0.631-0.421 1.262-0.631 1.892 0 0.21-0.21 0.631-0.21 0.841-0.21 0.631-0.421 1.051-0.841 1.682-0.21 0.21-0.21 0.631-0.421 0.841-0.21 0.421-0.421 0.841-0.841 1.262-0.21 0.421-0.421 0.631-0.631 1.051s-0.421 0.631-0.631 1.051c-0.21 0.421-0.631 0.841-0.841 1.262-0.21 0.21-0.421 0.421-0.631 0.631-0.421 0.421-0.841 0.841-1.262 1.262-0.21 0.21-0.421 0.421-0.631 0.631-0.421 0.421-0.841 0.841-1.472 1.262-0.21 0.21-0.631 0.421-0.841 0.631-0.421 0.421-0.841 0.631-1.262 1.051-0.631 0.421-1.262 0.841-1.682 1.051-0.21 0.21-0.421 0.21-0.631 0.421-0.841 0.421-1.892 0.841-2.733 1.262l-154.967 65.183c-14.508 6.098-31.12-0.631-37.217-15.139s0.631-31.12 15.139-37.217l137.515-58.034v-621.97c0-58.875 44.156-107.657 101.138-115.016-10.303-17.242-16.401-37.428-16.401-58.875 0-63.29 51.515-114.595 114.595-114.595s114.595 51.515 114.595 114.595c0 21.027-5.677 41.002-15.77 57.823h255.264c-10.093-17.032-15.77-36.797-15.77-57.823 0-63.29 51.515-114.595 114.595-114.595s114.595 51.515 114.595 114.595c0 63.080-51.515 114.595-114.595 114.595h-536.181c-32.802 0-59.295 26.704-59.295 59.295v76.958c17.242-10.093 37.638-15.98 59.295-15.98zM438.289 51.713c0-31.961-26.073-57.823-57.823-57.823s-57.823 26.073-57.823 57.823c0 31.75 26.073 57.823 57.823 57.823s57.823-25.863 57.823-57.823zM891.204 51.713c0-31.961-26.073-57.823-57.823-57.823s-57.823 26.073-57.823 57.823c0 31.75 26.073 57.823 57.823 57.823s57.823-25.863 57.823-57.823zM860.715 343.143h-563.726c-32.802 0-59.295 26.704-59.295 59.295v306.779l682.316-93.989v-212.58c0-33.012-26.704-59.506-59.295-59.506z" />
<glyph unicode="&#xe916;" glyph-name="star-full" d="M489.984 934.094c14.643 5.12 29.286 5.12 44.032 0 14.643-5.12 25.805-15.36 33.485-30.618l124.416-252.621 279.45-40.141c16.589-2.56 29.696-10.24 39.219-22.938 9.523-12.8 14.029-26.829 13.414-42.086-0.614-15.36-6.656-28.672-18.227-40.141l-202.854-197.222 47.821-279.45c2.56-15.36-0.307-29.696-8.602-43.11s-20.070-22.016-35.43-25.805c-15.36-3.789-30.003-1.946-44.032 5.734l-250.675 130.15-250.675-130.15c-14.029-7.68-28.672-9.523-44.032-5.734s-27.136 12.39-35.43 25.805c-8.294 13.414-11.162 27.75-8.602 43.11l47.821 279.45-202.854 197.12c-11.469 11.469-17.51 24.883-18.125 40.141-0.614 15.36 3.789 29.286 13.414 42.086 9.523 12.698 22.63 20.378 39.219 22.938l279.45 40.141 124.314 252.723c7.68 15.36 18.842 25.498 33.485 30.618z" />
<glyph unicode="&#xe917;" glyph-name="star-half" d="M1009.664 587.47c9.523-12.698 14.336-26.726 14.336-41.984s-6.349-28.672-19.149-40.141l-202.445-196.813 47.718-278.938c3.789-19.149-0.614-35.635-13.414-49.664-12.698-14.029-28.058-20.992-45.875-20.992-10.24 0-19.763 2.56-28.672 7.68l-250.163 129.843-250.266-129.843c-8.909-5.12-18.432-7.68-28.672-7.68-17.818 0-33.178 7.066-45.875 20.992-12.698 14.029-17.203 30.618-13.414 49.664l47.718 278.938-202.342 196.813c-12.8 11.469-19.149 24.781-19.149 40.038s4.813 29.286 14.336 41.984c9.523 12.698 22.016 20.378 37.274 22.938l280.883 40.141 124.109 252.211c6.349 11.469 14.336 20.070 23.859 25.805s20.070 8.602 31.539 8.602 22.016-2.867 31.539-8.602 17.51-14.336 23.859-25.805l124.211-252.211 280.883-41.984c15.258-1.229 27.648-8.294 37.171-20.992zM896 528.283l-265.523 38.195-118.477 240.64v-605.594l236.851-126.054-43.93 265.523 34.406 32.461 156.672 154.829z" />
<glyph unicode="&#xe918;" glyph-name="star-line" d="M1010.586 587.675c9.523-12.8 14.029-26.829 13.414-42.086-0.614-15.36-6.656-28.672-18.227-40.141l-202.854-197.12 47.821-279.45c2.56-15.36-0.307-29.696-8.602-43.11s-20.070-22.016-35.43-25.805c-15.36-3.789-30.003-1.946-44.032 5.734l-250.675 130.15-250.675-130.15c-14.029-7.68-28.672-9.523-44.032-5.734s-27.136 12.39-35.43 25.805c-8.294 13.414-11.162 27.75-8.602 43.11l47.821 279.45-202.854 197.12c-11.469 11.469-17.51 24.883-18.125 40.141-0.614 15.36 3.789 29.286 13.414 42.086 9.523 12.698 22.63 20.378 39.219 22.938l279.45 40.141 124.314 252.723c7.68 15.36 18.842 25.498 33.485 30.618s29.286 5.12 44.032 0c14.643-5.12 25.805-15.36 33.485-30.618l124.416-252.621 279.45-40.141c16.486-2.56 29.594-10.24 39.219-23.040zM896.717 528.385l-266.035 38.298-118.682 241.152-118.682-241.152-266.035-38.298 191.386-187.597-44.032-266.035 237.363 126.362 237.261-126.259-44.032 266.035 191.488 187.494z" />
<glyph unicode="&#xe919;" glyph-name="tumblr" d="M812.032 27.956c5.325-13.312 5.325-22.63 0-27.955-15.974-17.306-40.038-31.949-71.987-44.032-38.707-13.312-79.974-19.968-124.006-19.968-73.318 0-134.042 16.691-181.965 49.971-40.038 26.726-69.325 64-87.962 112.026-15.974 37.274-23.962 77.312-23.962 120.013v287.949h-94.003c-5.325 0-10.035 1.638-14.029 5.018-3.994 3.277-6.042 8.294-6.042 14.95v136.090c0 6.656 2.048 13.005 6.042 19.046s9.318 10.342 15.974 13.005c56.013 18.637 99.328 52.634 130.048 101.99 22.63 38.707 36.045 82.637 40.038 131.994 1.126 21.299 11.878 31.949 31.846 31.949h142.029c5.325 0 10.035-2.048 14.029-6.042s6.042-8.704 6.042-14.029v-229.99h165.99c5.325 0 10.035-2.048 14.029-6.042s6.042-8.704 6.042-14.029v-164.045c0-5.325-2.048-10.035-6.042-14.029s-8.704-6.042-14.029-6.042h-168.141v-266.035c0-36.045 11.981-61.338 36.045-75.981 23.962-14.643 57.344-13.312 100.045 3.994 11.981 5.325 20.992 6.963 27.034 5.018s10.342-6.963 13.005-14.95l43.93-129.843z" />
<glyph unicode="&#xe91a;" glyph-name="twitter" d="M1024 765.953c-29.389-42.701-64.717-79.36-105.984-109.978 1.331-5.325 2.048-14.029 2.048-26.010 0-96.051-23.347-188.723-70.042-278.016-48.026-94.72-115.302-169.984-202.035-225.997-94.72-62.669-203.366-94.003-326.042-94.003-117.248 0.102-224.666 31.437-321.946 94.003 14.643-1.331 31.334-2.048 49.971-2.048 97.28 0 184.627 30.003 262.042 90.010-46.694 0-87.654 13.619-122.982 40.96s-59.699 61.645-73.011 103.014c13.312-1.331 26.010-2.048 37.99-2.048 18.637 0 37.274 2.048 56.013 6.042-48.026 10.65-87.962 35.328-120.013 74.035s-48.026 82.739-48.026 132.096v3.994c29.286-17.306 60.621-26.726 94.003-27.955-27.955 19.968-50.688 45.261-67.994 75.981-17.306 30.618-26.010 64.307-26.010 100.966s10.035 71.68 30.003 104.96c52.019-65.331 115.61-117.35 190.976-155.955 75.264-38.707 155.648-60.006 241.050-64-2.662 15.974-3.994 31.949-3.994 48.026 0 37.274 9.318 72.294 27.955 104.96s44.032 58.266 75.981 77.005c31.949 18.637 66.662 27.955 104.038 27.955 30.618 0 58.982-6.042 84.992-18.022s49.050-27.955 69.018-48.026c48.026 9.318 92.672 26.010 134.042 49.971-15.974-49.357-46.694-87.962-91.955-116.019 39.936 5.427 79.872 16.794 119.91 34.099v0z" />
<glyph unicode="&#xe91b;" glyph-name="user" d="M511.109 485.446c64.001 0 119.413 22.946 164.702 68.218 45.274 45.265 68.236 100.649 68.236 164.634 0 63.962-22.954 119.354-68.243 164.634-45.289 45.258-100.701 68.203-164.695 68.203-64.008 0-119.413-22.946-164.695-68.211s-68.243-100.657-68.243-164.626c0-63.984 22.962-119.376 68.243-164.641 45.296-45.258 100.709-68.211 164.695-68.211zM386.494 842.867c34.745 34.732 75.504 51.615 124.615 51.615 49.104 0 89.87-16.883 124.622-51.615 34.745-34.74 51.642-75.491 51.642-124.569 0-49.093-16.897-89.836-51.642-124.576-34.753-34.74-75.519-51.623-124.622-51.623-49.096 0-89.855 16.89-124.615 51.623-34.753 34.732-51.649 75.483-51.649 124.576 0 49.078 16.897 89.829 51.649 124.569zM918.688 207.75c-1.306 18.838-3.947 39.386-7.836 61.086-3.925 21.862-8.98 42.528-15.030 61.418-6.257 19.524-14.75 38.804-25.264 57.28-10.898 19.177-23.707 35.876-38.080 49.617-15.030 14.375-33.432 25.933-54.711 34.364-21.206 8.386-44.706 12.635-69.845 12.635-9.872 0-19.42-4.049-37.859-16.050-11.348-7.398-24.622-15.954-39.438-25.417-12.669-8.069-29.831-15.629-51.030-22.474-20.682-6.69-41.681-10.083-62.414-10.083-20.719 0-41.718 3.393-62.414 10.083-21.176 6.837-38.346 14.397-50.993 22.466-14.676 9.375-27.957 17.93-39.475 25.432-18.424 12-27.972 16.050-37.844 16.050-25.146 0-48.639-4.256-69.837-12.649-21.265-8.416-39.674-19.973-54.719-34.364-14.373-13.748-27.182-30.44-38.073-49.609-10.5-18.476-19-37.749-25.257-57.287-6.043-18.889-11.097-39.549-15.023-61.41-3.896-21.67-6.53-42.226-7.836-61.108-1.284-18.461-1.933-37.675-1.933-57.088 0-50.465 16.048-91.319 47.694-121.449 31.255-29.732 72.604-44.808 122.903-44.808h465.67c50.284 0 91.633 15.076 122.896 44.808 31.654 30.108 47.702 70.977 47.702 121.456-0.007 19.479-0.664 38.693-1.955 57.103zM833.865 70.236c-20.652-19.649-48.071-29.201-83.827-29.201h-465.663c-35.763 0-63.182 9.552-83.827 29.193-20.254 19.273-30.097 45.582-30.097 80.41 0 18.115 0.598 36.001 1.793 53.172 1.166 16.846 3.549 35.352 7.083 55.016 3.49 19.42 7.932 37.646 13.215 54.145 5.069 15.821 11.983 31.487 20.556 46.578 8.183 14.383 17.598 26.722 27.987 36.665 9.717 9.301 21.966 16.913 36.398 22.621 13.348 5.281 28.348 8.172 44.632 8.607 1.985-1.055 5.519-3.068 11.245-6.8 11.651-7.59 25.079-16.249 39.925-25.727 16.734-10.665 38.294-20.298 64.053-28.61 26.334-8.512 53.191-12.834 79.85-12.834s53.523 4.322 79.842 12.826c25.78 8.327 47.333 17.953 64.089 28.633 15.192 9.706 28.245 18.115 39.895 25.712 5.726 3.725 9.26 5.746 11.245 6.8 16.292-0.435 31.292-3.326 44.647-8.607 14.425-5.709 26.673-13.328 36.391-22.621 10.389-9.935 19.804-22.275 27.987-36.672 8.581-15.083 15.502-30.757 20.564-46.563 5.29-16.522 9.74-34.74 13.222-54.145 3.527-19.701 5.918-38.214 7.083-55.030v-0.015c1.203-17.104 1.808-34.983 1.815-53.15-0.007-34.836-9.85-61.137-30.104-80.403z" />
<glyph unicode="&#xe91c;" glyph-name="youtube" d="M1013.828 684.615c-0.016 0.086-0.034 0.188-0.034 0.274-0.426 3.208-10.752 79.274-43.486 114.996-38.486 43.35-81.136 47.718-104.056 50.056l-6.536 0.716c-137.54 10.77-345.412 11.946-348.142 11.964-2.082-0.018-209.954-1.194-348.246-12.050l-5.752-0.632c-22.92-2.338-65.554-6.708-103.884-49.868-32.888-35.908-43.23-111.958-43.69-115.456-0.104-0.872-10.002-88.252-10.002-174.49v-80.862c0-86.29 9.898-173.62 10.036-174.78 0.426-3.208 10.734-79.24 43.486-114.91 35.516-39.97 79.804-45.722 106.274-49.17 4.676-0.598 8.824-1.11 13.858-2.048 79.036-8.176 327.544-10.7 338.296-10.804 2.082 0 210.192 0.494 348.62 11.23l5.956 0.666c22.87 2.406 65.45 6.912 103.578 49.902 32.904 35.858 43.246 111.872 43.724 115.37 0.086 0.888 10.002 88.252 10.002 174.506v80.88c0 86.258-9.916 173.638-10.002 174.51zM725.128 438.121l-324.266-181.402c-2.594-1.45-5.462-2.184-8.328-2.184-2.986 0-5.974 0.786-8.636 2.338-5.222 3.072-8.43 8.67-8.43 14.728v371.252c0 6.11 3.276 11.776 8.568 14.814 5.342 3.038 11.844 2.986 17.118-0.086l324.266-189.85c5.29-3.088 8.5-8.772 8.448-14.882-0.070-6.126-3.398-11.742-8.74-14.728z" />
<glyph unicode="&#xe91d;" glyph-name="spinner" d="M669.491 810.804c0-76.288-61.952-138.24-138.24-138.24-76.39 0-138.24 61.952-138.24 138.24 0 76.39 61.952 138.342 138.24 138.342s138.24-62.054 138.24-138.342zM531.354 100.353c-42.496 0.102-77.005-34.304-77.21-76.902-0.102-42.598 34.202-77.21 76.8-77.312s77.21 34.202 77.21 76.8c0.205 42.803-34.202 77.312-76.8 77.414zM924.979 467.355c-27.853 0-50.381-22.426-50.381-50.278 0-27.75 22.426-50.381 50.381-50.381 27.75 0 50.278 22.528 50.278 50.381 0 27.75-22.528 50.278-50.278 50.278zM225.382 417.076c0 48.64-39.322 87.962-87.962 87.962s-87.962-39.424-87.962-87.962 39.322-87.962 87.962-87.962 87.962 39.322 87.962 87.962zM837.632 667.342c15.462 15.565 15.462 40.755 0 56.218-15.462 15.565-40.448 15.462-55.91 0-15.462-15.565-15.462-40.755 0-56.218 15.565-15.565 40.55-15.565 55.91 0zM188.826 202.446c-35.328-35.123-35.328-92.365 0-127.59s92.57-35.226 127.795 0c35.43 35.123 35.43 92.262 0.102 127.488-35.328 35.123-92.57 35.123-127.898 0.102zM773.222 175.207c-20.173-20.275-20.173-53.146 0-73.421 20.378-20.173 53.043-20.173 73.216 0.102s20.173 53.146-0.102 73.421c-20.173 20.173-52.941 20.173-73.114-0.102zM186.982 761.55c-36.454-36.454-36.454-95.642 0-132.198s95.539-36.454 131.994 0c36.454 36.454 36.454 95.642 0 132.198-36.454 36.454-95.539 36.454-131.994 0z" />
<glyph unicode="&#xe91e;" glyph-name="file" d="M659.821 954.087c-4.695 4.945-11.133 7.914-17.805 7.914h-399.462c-73.711 0-134.555-60.602-134.555-134.305v-755.384c0-73.711 60.844-134.313 134.555-134.313h542.173c73.711 0 134.555 60.602 134.555 134.313v599.806c0 6.43-2.969 12.609-7.172 17.313zM666.992 874.688l168.938-177.344h-109.821c-32.648 0-59.117 26.219-59.117 58.867zM784.727-12.532h-542.173c-46.25 0-85.086 38.336-85.086 84.844v755.384c0 46.25 38.586 84.836 85.086 84.836h374.969v-156.321c0-60.102 48.484-108.336 108.586-108.336h143.703v-575.564c0-46.508-38.586-84.844-85.086-84.844zM717.204 158.132h-407.126c-13.602 0-24.734-11.125-24.734-24.734 0-13.602 11.133-24.734 24.734-24.734h407.376c13.602 0 24.734 11.133 24.734 24.734 0 13.609-11.133 24.734-24.984 24.734zM495.586 246.929c4.703-4.945 11.133-7.914 18.055-7.914 6.93 0 13.359 2.969 18.055 7.914l144.946 155.578c9.398 9.898 8.656 25.727-1.234 34.875-9.898 9.398-25.727 8.664-34.875-1.234l-102.156-109.571v270.094c0 13.609-11.133 24.734-24.734 24.734s-24.734-11.125-24.734-24.734v-270.094l-101.906 109.571c-9.398 9.891-24.984 10.633-34.875 1.234s-10.633-24.984-1.234-34.875z" />
<glyph unicode="&#xe91f;" glyph-name="doubt" d="M916.676 896.18h-809.352c-59.298 0-107.324-48.048-107.324-107.324v-530.376c0-59.298 48.048-107.28 107.324-107.28h614.912l118.111-119.523c20.582-20.781 48.246-31.855 76.373-31.855 13.677 0 27.576 2.603 40.768 8.030 40.238 16.545 66.534 55.747 66.534 99.272v681.733c-0.022 59.298-48.070 107.324-107.346 107.324zM560.334 306.903c0-36.841-28.392-65.277-66.733-65.277-38.385 0-66.777 28.436-66.777 65.277v1.522c0 36.797 28.414 65.233 66.777 65.233 38.341 0 66.733-28.436 66.733-65.233v-1.522zM694.638 629.911c0-97.397-67.549-137.37-151.202-154.202l-2.294-13.81c-3.111-19.921-19.17-37.613-41.429-37.613h-6.111c-22.259 0-38.385 16.964-41.474 37.613l-7.655 52.173c-3.839 25.347 10.743 42.974 35.319 46.062 66.733 8.427 97.441 29.186 97.441 66.799v1.456c0 34.502-26.097 54.511-70.615 54.511-33.002 0-61.394-9.993-89.014-30.708-9.221-6.905-21.509-12.31-34.525-12.31-29.164 0-53.761 24.597-53.761 53.739 0 14.648 6.155 29.936 19.965 41.452 40.679 33.797 92.102 55.328 159.629 55.328 110.501 0 185.705-56.872 185.705-158.945v-1.544h0.022z" />
<glyph unicode="&#xe920;" glyph-name="angle-down" d="M472.064 154.932l-455.68 455.68c-10.854 10.957-16.384 24.269-16.384 39.936s5.53 28.979 16.486 39.936l51.712 51.712c10.957 10.957 24.269 16.794 39.936 17.613s28.979-4.301 39.936-15.258l363.93-364.134 364.032 364.032c10.957 10.957 24.269 16.077 39.936 15.258s28.979-6.656 39.936-17.613l51.712-51.712c10.957-10.957 16.486-24.269 16.486-39.936s-5.53-28.979-16.486-39.936l-455.68-455.68c-10.957-12.595-24.269-18.739-39.936-18.739-15.667 0.102-28.979 6.349-39.936 18.842z" />
<glyph unicode="&#xe921;" glyph-name="angle-left" d="M218.931 487.937l455.68 455.68c10.957 10.854 24.269 16.384 39.936 16.384s28.979-5.53 39.936-16.486l51.712-51.712c10.957-10.957 16.794-24.269 17.613-39.936s-4.301-28.979-15.258-39.936l-364.134-363.93 364.032-364.032c10.957-10.957 16.077-24.269 15.258-39.936s-6.656-28.979-17.613-39.936l-51.712-51.712c-10.957-10.957-24.269-16.486-39.936-16.486s-28.979 5.53-39.936 16.486l-455.68 455.68c-12.595 10.957-18.739 24.269-18.739 39.936 0.102 15.667 6.349 28.979 18.842 39.936z" />
<glyph unicode="&#xe922;" glyph-name="default" d="M938.6 721.001h-170.6c-28.2 0-51.2 23-51.2 51.2v85.4c0 9.4-7.6 17-17 17s-17-7.6-17-17v-85.4c0-47 38.2-85.4 85.4-85.4h153.6v-665.6c0-28.2-23-51.2-51.2-51.2h-717c-28.2 0-51.2 23-51.2 51.2v853.4c0 28.2 23 51.2 51.2 51.2h539l165.6-165.6c6.6-6.6 17.4-6.6 24.2 0 6.6 6.6 6.6 17.4 0 24.2l-170.6 170.6c-3.2 3.2-7.6 5-12 5h-546.2c-47 0-85.4-38.2-85.4-85.4v-853.4c0-47 38.2-85.4 85.4-85.4h716.8c47 0 85.4 38.2 85.4 85.4v682.8c0 9.4-7.8 17-17.2 17z" />
<glyph unicode="&#xe923;" glyph-name="artboard" d="M426.666 379.735h136.534c9.438 0 17.066 7.646 17.066 17.066s-7.628 17.066-17.066 17.066h-136.534c-9.438 0-17.066-7.646-17.066-17.066s7.628-17.066 17.066-17.066zM938.666 721.067h-170.666c-28.228 0-51.2 22.972-51.2 51.2v85.334c0 9.42-7.628 17.066-17.066 17.066s-17.066-7.646-17.066-17.066v-85.334c0-47.052 38.28-85.334 85.334-85.334h153.6v-665.6c0-28.228-22.972-51.2-51.2-51.2h-716.802c-28.228 0-51.2 22.972-51.2 51.2v853.334c0 28.228 22.972 51.2 51.2 51.2h539.068l165.666-165.666c6.674-6.674 17.46-6.674 24.132 0 6.672 6.672 6.672 17.46 0 24.132l-170.666 170.668c-3.192 3.208-7.526 5-12.066 5h-546.134c-47.052 0-85.334-38.28-85.334-85.334v-853.334c0-47.052 38.282-85.332 85.334-85.332h716.8c47.052 0 85.334 38.28 85.334 85.334v682.666c0 9.42-7.63 17.066-17.068 17.066zM426.666 311.467h170.666c9.438 0 17.066 7.646 17.066 17.066s-7.628 17.066-17.066 17.066h-170.666c-9.438 0-17.066-7.646-17.066-17.066s7.628-17.066 17.066-17.066zM512 550.401c-9.438 0-17.066-7.646-17.066-17.066v-17.066h-170.666c-9.438 0-17.066-7.646-17.066-17.066v-273.066c0-9.42 7.628-17.066 17.066-17.066h125.986l-38.86-77.704c-4.216-8.43-0.786-18.67 7.646-22.904 2.44-1.212 5.052-1.792 7.612-1.792 6.264 0 12.288 3.448 15.292 9.438l46.472 92.962h47.172l46.472-92.962c3.004-5.99 9.028-9.438 15.292-9.438 2.56 0 5.172 0.58 7.612 1.792 8.43 4.232 11.862 14.472 7.646 22.904l-38.86 77.704h125.986c9.438 0 17.066 7.646 17.066 17.066v273.064c0 9.42-7.628 17.066-17.066 17.066h-170.666v17.066c-0.004 9.422-7.632 17.068-17.070 17.068zM682.666 482.135v-238.934h-341.332v238.934h341.332z" />
<glyph unicode="&#xe924;" glyph-name="clipboard" d="M512.484 905.509c-35.109 0-63.672-28.563-63.672-63.672 0-35.117 28.563-63.688 63.672-63.688 35.117 0 63.688 28.57 63.688 63.688 0 35.109-28.57 63.672-63.688 63.672zM512.484 875.095c12.859 0 24.023-7.344 29.555-18.047h-59.094c5.531 10.703 16.68 18.047 29.539 18.047zM512.484 808.563c-12.859 0-24.016 7.359-29.547 18.070h59.109c-5.539-10.711-16.695-18.070-29.563-18.070zM897.743 555.906c8.398 0 15.211 6.813 15.211 15.211v193.321c0 51.070-41.547 92.61-92.61 92.61h-86.75c-4.313 21.359-23.234 37.492-45.844 37.492h-67.281c-19.969 40.75-62.102 67.461-107.985 67.461-45.875 0-88.008-26.711-107.977-67.461h-67.281c-22.617 0-41.531-16.133-45.844-37.492h-86.781c-51.063 0-92.602-41.539-92.602-92.602v-733.837c0-51.063 41.539-92.61 92.602-92.61h615.743c51.063 0 92.61 41.547 92.61 92.61v479.673c0 8.398-6.813 15.211-15.211 15.211s-15.203-6.813-15.203-15.211v-479.673c0-34.297-27.898-62.195-62.195-62.195h-615.743c-34.289 0-62.188 27.898-62.188 62.195v733.83c0 34.297 27.898 62.195 62.188 62.195h85.852v-65.922h-57.797c-8.398 0-15.211-6.813-15.211-15.211v-669.15c0-8.398 6.813-15.211 15.211-15.211h50.484c8.398 0 15.203 6.813 15.203 15.211s-6.805 15.203-15.203 15.203h-35.274v638.736h42.586v-45.625c0-8.398 6.805-15.203 15.203-15.203h413.657c8.398 0 15.211 6.805 15.211 15.203v45.625h42.578v-638.736h-433.134c-8.398 0-15.203-6.805-15.203-15.203s6.805-15.211 15.203-15.211h448.345c8.398 0 15.203 6.813 15.203 15.211v669.15c0 8.398-6.805 15.211-15.203 15.211h-57.789v65.922h85.82c34.297 0 62.195-27.898 62.195-62.188v-193.328c0-8.398 6.805-15.211 15.203-15.211zM320.867 699.875v147.891c0 9.023 7.336 16.359 16.359 16.359h77.227c6.305 0 11.953 3.883 14.203 9.773 13.211 34.5 46.899 57.688 83.828 57.688 36.938 0 70.625-23.188 83.836-57.688 2.25-5.891 7.898-9.773 14.203-9.773h77.227c9.016 0 16.359-7.336 16.359-16.359v-147.891zM315.789 539.688h393.384c8.398 0 15.203 6.813 15.203 15.211s-6.805 15.203-15.203 15.203h-393.384c-8.398 0-15.211-6.805-15.211-15.203s6.813-15.211 15.211-15.211zM315.789 422.078h393.384c8.398 0 15.203 6.813 15.203 15.211s-6.805 15.203-15.203 15.203h-393.384c-8.398 0-15.211-6.805-15.211-15.203s6.813-15.211 15.211-15.211zM315.789 304.468h393.384c8.398 0 15.203 6.813 15.203 15.211s-6.805 15.211-15.203 15.211h-393.384c-8.398 0-15.211-6.813-15.211-15.211s6.813-15.211 15.211-15.211zM315.789 186.859h393.384c8.398 0 15.203 6.813 15.203 15.211s-6.805 15.211-15.203 15.211h-393.384c-8.398 0-15.211-6.813-15.211-15.211s6.813-15.211 15.211-15.211z" />
<glyph unicode="&#xe925;" glyph-name="audio" d="M938.666 721.067h-170.666c-28.228 0-51.2 22.972-51.2 51.2v85.334c0 9.42-7.646 17.066-17.066 17.066s-17.066-7.646-17.066-17.066v-85.334c0-47.052 38.28-85.334 85.334-85.334h153.6v-665.6c0-28.228-22.972-51.2-51.2-51.2h-716.802c-28.228 0-51.2 22.972-51.2 51.2v853.334c0 28.228 22.972 51.2 51.2 51.2h539.068l165.666-165.666c6.674-6.674 17.46-6.674 24.132 0 6.672 6.672 6.672 17.46 0 24.132l-170.666 170.668c-3.192 3.208-7.544 5-12.066 5h-546.134c-47.052 0-85.334-38.28-85.334-85.334v-853.334c0-47.052 38.282-85.332 85.334-85.332h716.8c47.052 0 85.334 38.28 85.334 85.334v682.666c0 9.42-7.646 17.066-17.068 17.066zM631.466 311.467c9.42 0 17.066 7.646 17.066 17.066s-7.646 17.066-17.066 17.066c-47.052 0-85.334-38.28-85.334-85.334 0-47.052 38.28-85.334 85.334-85.334 47.052 0 85.334 38.28 85.334 85.334v307.2c0 5.256-2.424 10.222-6.57 13.448-4.13 3.242-9.574 4.404-14.644 3.106l-273.066-68.264c-7.594-1.894-12.92-8.722-12.92-16.554v-307.2c0-28.228-22.972-51.2-51.2-51.2s-51.2 22.972-51.2 51.2 22.972 51.2 51.2 51.2c9.42 0 17.066 7.646 17.066 17.066s-7.646 17.066-17.066 17.066c-47.052 0-85.334-38.28-85.334-85.334 0-47.052 38.28-85.334 85.334-85.334 47.052 0 85.334 38.28 85.334 85.334v293.872l238.934 59.734v-285.338c0-28.228-22.972-51.2-51.2-51.2s-51.2 22.972-51.2 51.2 22.97 51.2 51.198 51.2z" />
<glyph unicode="&#xe926;" glyph-name="professor" d="M689.875 269.446c16.836 16.836 30.945 35.664 42.148 55.938 4.539-1.313 9.32-2.016 14.336-2.016 46.242 0 87.391 57.938 87.391 103.609 0 25.305-8.977 46.938-23.977 61.75v121.711c0 8.406-6.813 15.219-15.227 15.219-8.406 0-15.219-6.813-15.219-15.219v-103.789c-5.25 1.547-10.781 2.547-16.539 2.945v100.047c0 8.406-6.813 15.227-15.227 15.227-8.406 0-15.227-6.82-15.227-15.227v-16.469c-59.438 3.914-274.242 26.172-384.321 146.047-1.258 1.359-2.758 2.492-4.414 3.32-6.234 3.117-13.789 1.602-18.344-3.68-38.875-45.094-60.289-102.774-60.289-162.414v-66.844c-4.43-0.313-8.727-0.969-12.859-1.969v250.039c0 16.305 7.523 31.195 20.641 40.875 13.109 9.68 29.57 12.469 45.141 7.664 8-2.469 16.5 1.984 19.008 9.977 13.594 43.203 43.578 77.766 84.422 97.328s86.57 21.258 128.75 4.758l102.477-40.070c37.516-14.664 69.344-40 92.063-73.273 22.711-33.266 34.719-72.141 34.719-112.422v-35.383c0-8.406 6.813-15.227 15.219-15.227 8.414 0 15.227 6.82 15.227 15.227v35.383c0 46.438-13.836 91.242-40.016 129.594-26.18 38.344-62.883 67.555-106.125 84.461l-102.477 40.070c-50.117 19.602-104.453 17.594-152.992-5.656-44.344-21.234-77.914-57.359-95.695-102.586-20.383 2.492-40.836-2.828-57.805-15.344-20.977-15.477-33.008-39.305-33.008-65.375v-265.555c-17.195-14.797-27.656-37.836-27.656-65.141 0-45.672 41.148-103.609 87.391-103.609 5.016 0 9.797 0.695 14.336 2.016 11.203-20.281 25.313-39.117 42.148-55.945 5.945-5.945 15.586-5.945 21.523 0 5.953 5.945 5.953 15.586 0 21.523-41.258 41.266-63.984 96.117-63.984 154.469v40.313h11.422c7.313-45.43 46.781-80.25 94.242-80.25 49.781 0 90.758 38.305 95.070 86.984 11.078 5.875 24.383 5.875 35.461 0 4.313-48.68 45.289-86.977 95.070-86.977 47.453 0 86.922 34.813 94.234 80.242h11.422v-40.313c0-58.336-22.727-113.188-63.992-154.453-41.25-41.266-96.109-63.992-154.477-63.992-43.773 0-86.008 12.898-122.125 37.297-6.969 4.711-16.43 2.875-21.133-4.086-4.711-6.969-2.883-16.438 4.086-21.141 17.828-12.047 36.969-21.617 56.977-28.617v-56.102l-153.477-88.977c-3.508-2.039-6.063-5.398-7.094-9.328l-26.391-100.953c-2.125-8.133 2.75-16.453 10.883-18.578 1.289-0.336 2.586-0.5 3.859-0.5 6.758 0 12.93 4.539 14.719 11.375l24.781 94.82 88.516 51.313 17.414-86.945c1.023-5.102 4.578-9.32 9.422-11.203 4.852-1.883 10.32-1.156 14.516 1.922l39.625 29.078 32.844-48.367c2.828-4.172 7.547-6.672 12.594-6.672s9.766 2.5 12.594 6.672l32.836 48.344 39.594-29.055c2.648-1.945 5.813-2.953 9.008-2.953 1.852 0 3.719 0.336 5.5 1.031 4.852 1.883 8.406 6.109 9.422 11.203l17.422 86.953 88.516-51.32 24.781-94.813c1.789-6.844 7.961-11.383 14.719-11.383 1.281 0 2.57 0.164 3.859 0.5 8.141 2.133 13.008 10.445 10.883 18.586l-26.391 100.953c-1.031 3.922-3.578 7.281-7.094 9.32l-153.43 88.953v56.078c34.898 12.172 66.883 32.141 93.774 59.055zM803.297 426.977c0-30.219-29.445-73.164-56.938-73.164-0.313 0-0.609 0.023-0.914 0.031 4.406 11.148 8 22.617 10.742 34.344 3.406 12.195 12.453 31.641 22.266 31.641 8.406 0 15.227 6.82 15.227 15.227s-6.82 15.227-15.227 15.227c-5.789 0-10.984-1.211-15.664-3.25v31.961c20.477-2.609 40.508-19.133 40.508-52.016zM281.39 353.813c-27.492 0-56.938 42.945-56.938 73.164 0 32.891 20.039 49.406 40.516 52.016v-31.969c-4.68 2.047-9.883 3.258-15.672 3.258-8.406 0-15.227-6.82-15.227-15.227s6.82-15.227 15.227-15.227c9.844 0 18.914-19.563 22.297-31.75 2.742-11.688 6.32-23.125 10.711-34.234-0.305-0.008-0.602-0.031-0.914-0.031zM401.078 435.946c-35.852 0-65.016 29.172-65.016 65.023 0 23.484 10.633 37.078 65.016 37.078s65.016-13.594 65.016-37.078c0-35.852-29.164-65.023-65.016-65.023zM626.68 435.946c-35.852 0-65.016 29.172-65.016 65.023 0 23.484 10.641 37.078 65.016 37.078s65.016-13.594 65.016-37.078c0-35.852-29.164-65.023-65.016-65.023zM720.774 516.188c-9.734 52.266-70.117 52.313-94.094 52.313-22.695 0-78.055-0.031-92.141-44.391-13.438 4.266-27.883 4.266-41.32 0-14.086 44.367-69.438 44.391-92.141 44.391-23.969 0-84.359-0.047-94.094-52.313h-11.563v60.258c0 46.742 14.984 92.117 42.492 129.477 57.594-56.188 141.93-97.313 251.024-122.352 63.914-14.672 118.234-19.438 143.399-20.953v-46.43zM415.297 109.641l20.047 11.625c6.805-21.961 22.586-40.016 43.039-49.844l-48.328-35.469zM513.891 13.649l-20.875 30.734 20.852 15.305 20.883-15.32zM597.68 35.953l-48.313 35.453c20.461 9.828 36.25 27.875 43.063 49.836l20.016-11.602zM565.656 146.5c-0.031-0.523-0.039-1.055-0.016-1.578-0.352-28.25-23.422-51.125-51.773-51.125-28.531 0-51.742 23.227-51.742 51.766v56.398c16.883-3.57 34.203-5.43 51.742-5.43 17.617 0 34.945 1.836 51.789 5.383zM366.703 325.219c0-8.406 6.82-15.227 15.227-15.227h73.078c23.977 0 45.32 11.461 58.875 29.172 13.547-17.711 34.891-29.172 58.867-29.172h73.078c8.414 0 15.227 6.82 15.227 15.227 0 40.859-33.242 74.094-74.094 74.094h-36.766c4.68 5.977 4.281 14.641-1.219 20.141-5.945 5.945-15.586 5.945-21.531 0-3.625-3.625-8.445-5.617-13.57-5.617s-9.945 1.992-13.57 5.617c-5.945 5.945-15.586 5.945-21.531 0-5.5-5.5-5.898-14.164-1.219-20.141h-36.758c-40.852 0-74.094-33.234-74.094-74.094zM455.008 340.446h-55.109c6.188 16.578 22.188 28.422 40.898 28.422h55.117c-6.195-16.586-22.195-28.422-40.906-28.422zM627.867 340.446h-55.117c-18.711 0-34.711 11.836-40.906 28.422h55.117c18.711 0 34.711-11.844 40.906-28.422z" />
<glyph unicode="&#xe927;" glyph-name="interactive" d="M593.442 382.925c-6.656-6.674-6.656-17.476 0-24.15 3.344-3.328 7.714-5 12.066-5 4.37 0 8.738 1.672 12.084 5l77.142 77.158c18.568 18.568 33.894 58.504 0 92.398-33.622 33.622-73.626 18.484-92.398 0l-77.158-77.142c-6.656-6.674-6.656-17.476 0-24.15 6.674-6.656 17.476-6.656 24.15 0l76.954 76.97c5.342 5.102 24.354 20.156 44.322 0.188 20.122-20.138 5.018-38.946 0-44.134l-77.162-77.138zM938.666 721.067h-170.666c-28.228 0-51.2 22.972-51.2 51.2v85.334c0 9.42-7.646 17.066-17.066 17.066s-17.066-7.646-17.066-17.066v-85.334c0-47.052 38.28-85.334 85.334-85.334h153.6v-665.6c0-28.228-22.972-51.2-51.2-51.2h-716.802c-28.228 0-51.2 22.972-51.2 51.2v853.334c0 28.228 22.972 51.2 51.2 51.2h539.068l165.666-165.666c6.674-6.674 17.46-6.674 24.132 0 6.672 6.672 6.672 17.46 0 24.132l-170.666 170.668c-3.192 3.208-7.544 5-12.066 5h-546.134c-47.052 0-85.334-38.28-85.334-85.334v-853.334c0-47.052 38.282-85.332 85.334-85.332h716.8c47.052 0 85.334 38.28 85.334 85.334v682.666c0 9.42-7.646 17.066-17.068 17.066zM443.734 345.601c-9.42 0-17.066-7.646-17.066-17.066s7.646-17.066 17.066-17.066c18.824 0 34.134-15.308 34.134-34.134 0-9.42 7.646-17.066 17.066-17.066s17.066 7.646 17.066 17.066c0 37.648-30.618 68.266-68.266 68.266zM443.734 413.867c-75.282 0-136.534-61.252-136.534-136.534v-119.466c0-9.42 7.646-17.066 17.066-17.066h119.466c75.282 0 136.534 61.252 136.534 136.534 0 75.28-61.252 136.532-136.532 136.532zM443.734 174.935h-102.4v102.4c0 56.474 45.926 102.4 102.4 102.4s102.4-45.926 102.4-102.4c0-56.474-45.928-102.4-102.4-102.4z" />
<glyph unicode="&#xe928;" glyph-name="graduate" d="M432.86 267.813v16.883c0 8.391-6.805 15.195-15.195 15.195-8.398 0-15.195-6.805-15.195-15.195v-16.883c0-8.391 6.797-15.195 15.195-15.195 8.391 0 15.195 6.805 15.195 15.195zM598.65 299.891c-8.391 0-15.195-6.805-15.195-15.195v-16.883c0-8.391 6.805-15.195 15.195-15.195 8.398 0 15.195 6.805 15.195 15.195v16.883c0 8.391-6.805 15.195-15.195 15.195zM508.157 201.415c12.688 0 25.375 4.828 35.031 14.484 5.938 5.93 5.938 15.555 0 21.484-5.938 5.938-15.555 5.938-21.484 0-7.477-7.461-19.617-7.469-27.094 0-5.93 5.938-15.547 5.938-21.484 0-5.938-5.93-5.938-15.555 0-21.484 9.656-9.656 22.344-14.484 35.031-14.484zM591.228 183.407h-166.133c-8.398 0-15.195-6.805-15.195-15.195 0-54.18 44.078-98.258 98.258-98.258s98.266 44.078 98.266 98.258c0 8.391-6.805 15.195-15.195 15.195zM508.157 100.336c-32.203 0-59.234 22.547-66.156 52.68h132.313c-6.914-30.133-33.953-52.68-66.156-52.68zM434.134 334.063c2.969-2.969 6.859-4.453 10.75-4.453 3.883 0 7.773 1.484 10.742 4.453 5.938 5.938 5.938 15.555 0 21.484-20.93 20.938-54.992 20.938-75.93 0-5.93-5.93-5.93-15.555 0-21.484 5.938-5.938 15.555-5.938 21.492 0 9.078 9.086 23.859 9.086 32.945 0zM598.65 371.274c-14.336 0-27.82-5.578-37.961-15.727-5.938-5.93-5.938-15.555 0-21.484 5.938-5.938 15.555-5.938 21.492 0 4.398 4.398 10.25 6.82 16.469 6.82 6.227 0 12.078-2.422 16.477-6.82 2.969-2.969 6.859-4.453 10.742-4.453 3.891 0 7.781 1.484 10.75 4.453 5.938 5.938 5.938 15.555 0 21.484-10.148 10.148-23.625 15.727-37.969 15.727zM1012.221 709.595l-133.086 50.742c-7.836 2.984-16.617-0.945-19.609-8.789-2.992-7.836 0.945-16.617 8.781-19.609l95.844-36.539-160.68-61.258v41.469c0 6.938-4.695 12.992-11.414 14.719-184.524 47.375-379.595 47.375-564.118 0-6.719-1.727-11.422-7.781-11.422-14.719v-41.461l-160.664 61.25 454.142 173.149 299.813-114.305c7.828-2.992 16.617 0.938 19.609 8.781s-0.945 16.625-8.781 19.609l-305.227 116.375c-3.492 1.328-7.344 1.328-10.828 0l-496.798-189.414c-5.891-2.25-9.781-7.898-9.781-14.195 0-6.305 3.891-11.953 9.781-14.203l208.735-79.578 0.008-216.196c0-8.391 6.797-15.195 15.195-15.195 8.391 0 15.195 6.805 15.195 15.195v85.367c12.367 3.031 24.781 5.867 37.242 8.469-16.031-33.344-24.422-69.93-24.422-107.477v-66.711c-4.414-0.313-8.695-0.969-12.82-1.961v21.531c0 8.398-6.805 15.195-15.195 15.195-8.398 0-15.195-6.797-15.195-15.195v-37.008c-17.172-14.766-27.609-37.766-27.609-65.024 0-45.578 41.063-103.406 87.219-103.406 5.055 0 9.867 0.719 14.445 2.055 42.352-76.633 123.992-128.641 217.563-128.641 66.383 0 128.766 25.844 175.664 72.766 16.805 16.805 30.883 35.594 42.063 55.836 4.531-1.313 9.305-2.008 14.305-2.008 46.156 0 87.227 57.82 87.227 103.406 0 25.242-8.961 46.836-23.93 61.625v317.383l59.727 22.766v-216.977c-20.594-6.469-35.57-25.734-35.57-48.43 0-27.992 22.773-50.766 50.766-50.766 27.984 0 50.758 22.773 50.758 50.766 0 22.695-14.977 41.961-35.563 48.43v228.555l118.633 45.227c5.891 2.25 9.781 7.898 9.781 14.203 0 6.297-3.891 11.953-9.781 14.195zM756.572 305.063v67.391c0 0.008 0.008 0.023 0.008 0.039v32.414c0 8.391-6.805 15.195-15.195 15.195-8.398 0-15.195-6.805-15.195-15.195v-16.438c-52.242 3.43-224.907 21.055-340.376 107.071 129.196 14.563 260.657 6.305 387.274-24.758v-168.664c-5.242 1.547-10.766 2.547-16.516 2.945zM246.907 663.759c172.383 42.281 353.79 42.281 526.173 0v-161.68c-86.281 20.563-174.672 30.836-263.086 30.836-88.406 0-176.805-10.273-263.079-30.836zM276.133 149.586c-27.438 0-56.828 42.859-56.828 73.024 0 32.82 20 49.305 40.43 51.914v-31.906c-4.664 2.039-9.859 3.25-15.633 3.25-8.398 0-15.195-6.805-15.195-15.195s6.797-15.195 15.195-15.195c10.445 0 20.016-22.078 22.82-33.899 0.023-0.094 0.063-0.18 0.086-0.273 2.688-10.852 6.086-21.438 10.148-31.68-0.336-0.016-0.672-0.039-1.023-0.039zM662.314 86.86c-41.156-41.18-95.914-63.86-154.164-63.86-120.219 0-218.024 97.805-218.024 218.016v130.758c0 40.859 11.289 80.406 32.672 114.821 7.188 1.234 14.383 2.375 21.586 3.469 73.836-65.188 176.078-97.75 249.711-113.633 59-12.719 108.446-17.031 132.094-18.453v-116.961c0-58.219-22.688-112.961-63.875-154.157zM740.181 149.586c-0.313 0-0.609 0.023-0.914 0.031 4.406 11.133 7.992 22.594 10.734 34.305 3.406 12.172 12.422 31.555 22.211 31.555 8.391 0 15.195 6.805 15.195 15.195s-6.805 15.195-15.195 15.195c-5.781 0-10.969-1.211-15.641-3.25v31.906c20.438-2.609 40.438-19.094 40.438-51.914 0-30.164-29.391-73.024-56.828-73.024zM878.392 338.602c-11.234 0-20.375 9.141-20.375 20.367 0 11.234 9.141 20.375 20.375 20.375s20.367-9.141 20.367-20.375c0-11.227-9.133-20.367-20.367-20.367z" />
<glyph unicode="&#xe929;" glyph-name="student" d="M461.883 559.267c-2.070 8.148-10.359 13.062-18.508 10.992l-69.023-17.594c-8.148-2.078-13.070-10.367-10.992-18.516 1.758-6.891 7.945-11.469 14.742-11.469 1.242 0 2.508 0.156 3.773 0.477l69.016 17.594c8.148 2.078 13.070 10.367 10.992 18.516zM572.851 540.752l69.023-17.594c1.258-0.328 2.523-0.477 3.773-0.477 6.789 0 12.984 4.578 14.742 11.469 2.070 8.148-2.844 16.43-10.992 18.508l-69.023 17.594c-8.156 2.078-16.437-2.844-18.516-10.992s2.844-16.43 10.992-18.508zM405.977 489.189v-16.914c0-8.406 6.812-15.227 15.227-15.227 8.406 0 15.219 6.82 15.219 15.227v16.914c0 8.406-6.812 15.227-15.219 15.227-8.414 0-15.227-6.82-15.227-15.227zM602.547 504.416c-8.406 0-15.227-6.82-15.227-15.227v-16.914c0-8.406 6.82-15.227 15.227-15.227s15.227 6.82 15.227 15.227v16.914c0 8.406-6.82 15.227-15.227 15.227zM511.875 395.588c12.711 0 25.422 4.836 35.102 14.516 5.945 5.945 5.945 15.586 0 21.531-5.953 5.945-15.594 5.945-21.531 0-7.484-7.484-19.664-7.484-27.141 0-5.945 5.945-15.586 5.945-21.531 0s-5.945-15.586 0-21.531c9.68-9.68 22.391-14.516 35.102-14.516zM496.953 332.564c-51.937 5.711-64.008 40.266-64.601 42.055-2.477 7.969-10.922 12.461-18.922 10.055-8.055-2.422-12.617-10.914-10.195-18.961 0.68-2.266 17.484-55.406 90.391-63.414 0.562-0.062 1.125-0.094 1.68-0.094 7.664 0 14.258 5.773 15.117 13.57 0.922 8.359-5.109 15.875-13.469 16.789zM687.875 269.439c16.836 16.836 30.945 35.664 42.141 55.937 4.547-1.312 9.32-2.008 14.344-2.008 46.242 0 87.391 57.937 87.391 103.609 0 25.297-8.977 46.937-23.977 61.75v203.781c0 46.43-13.836 91.242-40.016 129.594-4.742 6.945-14.211 8.727-21.164 3.984-6.937-4.742-8.727-14.211-3.984-21.156 22.711-33.266 34.719-72.141 34.719-112.422v-185.859c-5.25 1.547-10.781 2.539-16.539 2.945v100.039c0 8.414-6.82 15.227-15.227 15.227s-15.227-6.812-15.227-15.227v-16.453c-59.461 3.945-274.367 26.297-384.32 146.031-1.258 1.367-2.758 2.492-4.414 3.328-6.234 3.117-13.789 1.602-18.344-3.68-38.875-45.094-60.289-102.781-60.289-162.414v-66.851c-4.43-0.305-8.719-0.969-12.859-1.961v250.039c0 16.297 7.523 31.195 20.641 40.875 13.109 9.68 29.57 12.469 45.141 7.664 8-2.477 16.5 1.984 19.016 9.977 13.586 43.203 43.57 77.766 84.414 97.328 40.852 19.562 86.57 21.258 128.75 4.758l102.476-40.070c18.828-7.359 36.344-17.477 52.062-30.078 6.562-5.258 16.141-4.203 21.398 2.359s4.203 16.141-2.359 21.398c-18.125 14.531-38.312 26.195-60.016 34.68l-102.476 40.070c-50.117 19.602-104.453 17.594-152.992-5.656-44.344-21.234-77.906-57.359-95.695-102.586-20.375 2.484-40.836-2.828-57.805-15.344-20.977-15.477-33.008-39.305-33.008-65.375v-265.554c-17.195-14.797-27.656-37.836-27.656-65.141 0-45.672 41.148-103.609 87.391-103.609 5.070 0 9.898 0.711 14.484 2.055 29.398-53.195 77.711-94.547 135.797-114.93v-56.156l-74.844-43.391c-7.273-4.219-9.75-13.531-5.531-20.812 2.82-4.867 7.93-7.586 13.18-7.586 2.594 0 5.227 0.656 7.625 2.055l15.367 8.906 17.422-86.945c1.016-5.102 4.57-9.32 9.422-11.203 1.781-0.695 3.648-1.031 5.5-1.031 3.195 0 6.359 1.008 9.008 2.953l69.82 51.234v-97.289c0-8.406 6.82-15.219 15.227-15.219s15.227 6.812 15.227 15.219v97.289l69.812-51.234c4.195-3.078 9.672-3.805 14.516-1.922 4.852 1.875 8.398 6.102 9.422 11.203l17.422 86.945 88.508-51.312 24.781-94.82c1.789-6.844 7.961-11.375 14.719-11.375 1.273 0 2.57 0.164 3.867 0.5 8.133 2.125 13 10.445 10.875 18.578l-26.391 100.953c-1.023 3.93-3.578 7.281-7.094 9.32l-153.437 88.961v56.070c34.906 12.18 66.883 32.148 93.781 59.055zM801.297 426.978c0-30.219-29.453-73.164-56.945-73.164-0.305 0-0.609 0.023-0.906 0.031 4.43 11.203 8.031 22.742 10.789 34.531 3.352 11.937 12.469 31.453 22.211 31.453 8.414 0 15.227 6.82 15.227 15.227s-6.812 15.227-15.227 15.227c-5.781 0-10.984-1.211-15.664-3.258v31.969c20.477-2.617 40.516-19.133 40.516-52.016zM279.391 353.814c-27.492 0-56.945 42.945-56.945 73.164 0 32.883 20.047 49.406 40.523 52.016v-31.961c-4.68 2.047-9.883 3.25-15.672 3.25-8.406 0-15.227-6.82-15.227-15.227s6.82-15.227 15.227-15.227c10.461 0 20.055-22.117 22.859-33.961 0.031-0.125 0.086-0.234 0.117-0.352 2.695-10.852 6.086-21.422 10.148-31.664-0.336-0.016-0.68-0.039-1.031-0.039zM293.414 445.431v131.015c0 46.742 14.992 92.117 42.492 129.469 57.601-56.187 141.937-97.305 251.031-122.344 63.914-14.672 118.234-19.437 143.398-20.953v-117.195c0-58.336-22.727-113.187-64-154.453-41.242-41.266-96.101-63.992-154.469-63.992-120.453 0-218.453 98-218.453 218.453zM413.297 109.643l20.039 11.625c6.805-21.969 22.594-40.016 43.047-49.851l-48.328-35.461zM595.68 35.955l-48.312 35.453c20.453 9.828 36.25 27.875 43.062 49.836l20.008-11.602zM563.648 146.486c-0.031-0.516-0.031-1.023-0.016-1.539-0.328-28.258-23.406-51.148-51.766-51.148-28.531 0-51.742 23.219-51.742 51.766v56.391c16.695-3.539 34-5.422 51.742-5.422 17.609 0 34.945 1.836 51.781 5.383zM309.953 84.924l-33.758-19.57c-3.508-2.031-6.062-5.391-7.094-9.32l-26.391-100.953c-2.125-8.133 2.75-16.453 10.883-18.578 1.289-0.336 2.586-0.5 3.859-0.5 6.758 0 12.93 4.531 14.719 11.375l24.789 94.82 28.266 16.391c7.273 4.211 9.75 13.531 5.531 20.805-4.211 7.273-13.531 9.75-20.805 5.531z" />
<glyph unicode="&#xe92a;" glyph-name="magnifying-glass-1" d="M1015.031-11.777l-248.848 248.848c66.753 76.743 107.168 176.873 107.168 286.311 0 240.901-195.945 436.619-436.619 436.619-240.901 0-436.619-195.945-436.619-436.619s195.945-436.619 436.619-436.619c109.439 0 209.568 40.415 286.311 107.168l248.848-248.848c5.903-5.903 13.85-9.082 21.57-9.082s15.667 2.952 21.57 9.082c11.807 11.807 11.807 31.333 0 43.14zM61.19 523.382c0 207.071 168.472 375.315 375.315 375.315 207.071 0 375.315-168.472 375.315-375.315s-168.245-375.542-375.315-375.542c-206.843 0-375.315 168.472-375.315 375.542z" />
<glyph unicode="&#xe92b;" glyph-name="code" d="M623.82 176.727c2.458-1.228 5.068-1.792 7.628-1.792 6.264 0 12.288 3.448 15.274 9.42l68.266 136.534c2.406 4.812 2.406 10.462 0 15.274l-68.266 136.534c-4.216 8.43-14.456 11.862-22.904 7.628-8.432-4.216-11.844-14.456-7.628-22.904l64.444-128.888-64.444-128.904c-4.214-8.43-0.8-18.688 7.63-22.902zM938.666 721.067h-170.666c-28.246 0-51.2 22.954-51.2 51.2v85.334c0 9.42-7.646 17.066-17.066 17.066-9.438 0-17.066-7.646-17.066-17.066v-85.334c0-47.052 38.28-85.334 85.334-85.334h153.6v-665.6c0-28.246-22.972-51.2-51.2-51.2h-716.802c-28.246 0-51.2 22.954-51.2 51.2v853.334c0 28.228 22.954 51.2 51.2 51.2h539.050l165.666-165.666c6.674-6.674 17.476-6.674 24.15 0 6.656 6.656 6.656 17.46 0 24.132l-170.666 170.668c-3.208 3.192-7.544 5-12.066 5h-546.134c-47.052 0-85.334-38.28-85.334-85.334v-853.334c0-47.052 38.282-85.332 85.334-85.332h716.8c47.036 0 85.334 38.28 85.334 85.334v682.666c0 9.42-7.646 17.066-17.068 17.066zM547.926 438.563l-102.4-204.8c-4.216-8.43-0.802-18.688 7.628-22.904 2.458-1.228 5.068-1.792 7.628-1.792 6.264 0 12.288 3.448 15.274 9.42l102.4 204.8c4.216 8.448 0.802 18.688-7.628 22.904-8.464 4.216-18.688 0.804-22.902-7.628zM400.162 480.325c-8.466 4.232-18.688 0.802-22.904-7.628l-68.266-136.534c-2.406-4.812-2.406-10.462 0-15.274l68.266-136.534c2.986-5.974 9.012-9.42 15.292-9.42 2.542 0 5.154 0.564 7.612 1.792 8.43 4.216 11.844 14.472 7.628 22.904l-64.444 128.904 64.444 128.888c4.216 8.446 0.804 18.686-7.628 22.902z" />
<glyph unicode="&#xe92c;" glyph-name="review" d="M1020.334 253.048c-6.741 21.383-26.679 35.841-49.096 35.597h-22.552v550.857c0 9.507-7.708 17.214-17.214 17.214h-241v86.071c0 9.507-7.708 17.214-17.214 17.214h-654.142c-9.507 0-17.214-7.708-17.214-17.214v-895.142c0-9.507 7.708-17.214 17.214-17.214h568.76l-8.607-26.544c-6.976-21.299 0.58-44.658 18.71-57.838 18.122-13.18 42.674-13.163 60.788 0.034l90.232 65.722c6.094 4.455 14.373 4.455 20.467 0l90.4-65.755c18.021-13.398 42.699-13.398 60.729 0 18.332 13.012 25.964 36.513 18.761 57.821l-34.563 106.488c-2.269 7.052 0.286 14.768 6.312 19.072l90.568 65.755c18.29 13.070 25.863 36.572 18.66 57.863zM914.257 822.287v-533.642h-54.913c-1.807 0.008-3.606 0.303-5.321 0.874-5.186 1.748-9.254 5.808-11.011 10.986l-34.605 106.404c-6.968 21.19-26.754 35.513-49.062 35.513s-42.094-14.323-49.062-35.513l-19.812-60.822v166.343h137.714c9.507 0 17.214 7.708 17.214 17.214s-7.708 17.214-17.214 17.214h-137.714v68.857h137.714c9.507 0 17.214 7.708 17.214 17.214s-7.708 17.214-17.214 17.214h-137.714v68.857h137.714c9.507 0 17.214 7.708 17.214 17.214s-7.708 17.214-17.214 17.214h-137.714v68.857zM36.33 64.859v860.713h619.714v-636.928h-108.623c-22.4 0.059-42.288-14.348-49.23-35.647-6.934-21.308 0.656-44.658 18.794-57.812l90.535-65.739c6.069-4.32 8.632-12.070 6.338-19.156l-14.777-45.431zM981.391 223.024l-90.543-65.755c-18.139-13.070-25.746-36.37-18.803-57.619l34.605-106.387c2.362-7.103-0.143-14.928-6.203-19.341-6.052-4.413-14.264-4.396-20.307 0.034l-90.459 65.806c-18.164 13.070-42.657 13.070-60.822 0l-90.358-65.755c-6.035-4.438-14.256-4.455-20.316-0.050-6.060 4.413-8.574 12.23-6.212 19.341l34.588 106.337c6.968 21.282-0.647 44.624-18.82 57.703l-90.476 65.671c-6.102 4.371-8.666 12.188-6.346 19.324s9.002 11.944 16.5 11.885h111.893c7.17-0.059 14.264 1.479 20.761 4.514l0.328 0.185 0.311 0.101c0.244 0.109 0.412 0.311 0.656 0.437 12.827 5.959 22.611 16.971 27.023 30.411l34.605 106.37c2.32 7.061 8.918 11.843 16.349 11.843 7.439 0 14.037-4.783 16.357-11.843l34.613-106.454c6.951-21.198 26.721-35.538 49.029-35.563h111.893c7.498 0.059 14.172-4.749 16.491-11.877 2.328-7.128-0.227-14.936-6.321-19.316zM156.83 787.858h378.714c9.507 0 17.214 7.708 17.214 17.214s-7.708 17.214-17.214 17.214h-378.714c-9.507 0-17.214-7.708-17.214-17.214s7.708-17.214 17.214-17.214zM156.83 650.144h378.714c9.507 0 17.214 7.708 17.214 17.214s-7.708 17.214-17.214 17.214h-378.714c-9.507 0-17.214-7.708-17.214-17.214s7.708-17.214 17.214-17.214zM156.83 512.43h378.714c9.507 0 17.214 7.708 17.214 17.214s-7.708 17.214-17.214 17.214h-378.714c-9.507 0-17.214-7.708-17.214-17.214s7.708-17.214 17.214-17.214zM552.758 391.93c0 9.507-7.708 17.214-17.214 17.214h-378.714c-9.507 0-17.214-7.708-17.214-17.214s7.708-17.214 17.214-17.214h378.714c9.507 0 17.214 7.708 17.214 17.214z" />
<glyph unicode="&#xe92d;" glyph-name="calendar" d="M970.104 872.781h-175.158v60.252c0 11.236-9.054 20.344-20.21 20.344s-20.21-9.108-20.21-20.344v-60.268h-485.214v60.268c0 11.236-9.054 20.344-20.21 20.344s-20.21-9.108-20.21-20.344v-60.268h-174.996c-29.656 0-53.896-24.428-53.896-54.258v-821.624c0-29.844 24.24-54.258 53.896-54.258h916.21c29.628 0 53.894 24.428 53.894 54.258v821.624c0 29.844-24.266 54.274-53.896 54.274zM983.578-3.117c0-7.344-6.186-13.568-13.474-13.568h-916.208c-7.316 0-13.474 6.224-13.474 13.568v632.816h943.156v-632.816zM983.58 670.393h-943.158v148.114c0 7.358 6.156 13.568 13.474 13.568h174.996v-75.426c0-11.236 9.054-20.344 20.21-20.344s20.21 9.108 20.21 20.344v75.426h485.214v-75.426c0-11.236 9.054-20.344 20.21-20.344s20.21 9.108 20.21 20.344v75.426h175.158c7.29 0 13.474-6.212 13.474-13.568v-148.114zM465.11 495.329h-94.288c-11.156 0-20.21-9.122-20.21-20.358s9.054-20.358 20.21-20.358h94.288c11.156 0 20.21 9.122 20.21 20.358s-9.054 20.358-20.21 20.358zM653.742 495.329h-94.316c-11.156 0-20.21-9.122-20.21-20.358s9.054-20.358 20.21-20.358h94.316c11.156 0 20.21 9.122 20.21 20.358s-9.054 20.358-20.21 20.358zM842.372 495.329h-94.316c-11.156 0-20.21-9.122-20.21-20.358s9.054-20.358 20.21-20.358h94.316c11.156 0 20.21 9.122 20.21 20.358s-9.052 20.358-20.21 20.358zM465.11 374.065h-94.288c-11.156 0-20.21-9.122-20.21-20.358s9.054-20.358 20.21-20.358h94.288c11.156 0 20.21 9.122 20.21 20.358s-9.054 20.358-20.21 20.358zM653.742 374.065h-94.316c-11.156 0-20.21-9.122-20.21-20.358s9.054-20.358 20.21-20.358h94.316c11.156 0 20.21 9.122 20.21 20.358s-9.054 20.358-20.21 20.358zM842.372 374.065h-94.316c-11.156 0-20.21-9.122-20.21-20.358s9.054-20.358 20.21-20.358h94.316c11.156 0 20.21 9.122 20.21 20.358s-9.052 20.358-20.21 20.358zM263.020 374.065h-94.316c-11.156 0-20.21-9.122-20.21-20.358s9.054-20.358 20.21-20.358h94.316c11.13 0 20.21 9.122 20.21 20.358-0.002 11.236-9.068 20.358-20.21 20.358zM465.11 252.789h-94.288c-11.156 0-20.21-9.108-20.21-20.344s9.054-20.358 20.21-20.358h94.288c11.156 0 20.21 9.122 20.21 20.358 0.002 11.236-9.054 20.344-20.21 20.344zM653.742 252.789h-94.316c-11.156 0-20.21-9.108-20.21-20.344s9.054-20.358 20.21-20.358h94.316c11.156 0 20.21 9.122 20.21 20.358s-9.054 20.344-20.21 20.344zM842.372 252.789h-94.316c-11.156 0-20.21-9.108-20.21-20.344s9.054-20.358 20.21-20.358h94.316c11.156 0 20.21 9.122 20.21 20.358 0.002 11.236-9.052 20.344-20.21 20.344zM263.020 252.789h-94.316c-11.156 0-20.21-9.108-20.21-20.344s9.054-20.358 20.21-20.358h94.316c11.13 0 20.21 9.122 20.21 20.358 0.002 11.236-9.068 20.344-20.21 20.344zM263.020 131.525h-94.316c-11.156 0-20.21-9.108-20.21-20.344s9.054-20.358 20.21-20.358h94.316c11.13 0 20.21 9.122 20.21 20.358-0.002 11.236-9.068 20.344-20.21 20.344zM451.638 131.525h-94.288c-11.156 0-20.21-9.108-20.21-20.344s9.054-20.358 20.21-20.358h94.288c11.156 0 20.21 9.122 20.21 20.358s-9.054 20.344-20.21 20.344zM640.268 131.525h-94.316c-11.156 0-20.21-9.108-20.21-20.344s9.054-20.358 20.21-20.358h94.316c11.156 0 20.21 9.122 20.21 20.358 0.002 11.236-9.054 20.344-20.21 20.344z" />
<glyph unicode="&#xe92e;" glyph-name="open-book-1" d="M582.109 474.383c3.020-5.906 9.028-9.318 15.24-9.318 2.594 0 5.256 0.598 7.732 1.86 1.006 0.512 101.461 51.542 151.005 67.191 8.978 2.85 13.96 12.442 11.11 21.418-2.834 8.978-12.356 13.978-21.418 11.144-52.19-16.504-151.961-67.191-156.193-69.341-8.398-4.266-11.742-14.542-7.476-22.954zM597.349 669.861c2.594 0 5.256 0.598 7.732 1.86 1.006 0.512 101.461 51.542 151.005 67.191 8.978 2.85 13.96 12.442 11.11 21.418-2.834 8.978-12.356 13.978-21.418 11.144-52.19-16.504-151.961-67.191-156.193-69.341-8.396-4.266-11.742-14.54-7.476-22.954 3.020-5.904 9.028-9.318 15.24-9.318zM1006.93 703.995c-9.438 0-17.066-7.646-17.066-17.066v-665.595c0-28.228-22.972-51.2-51.2-51.2h-409.597v39.27c24.884 8.704 89.701 28.996 153.599 28.996 148.667 0 249.616-32.922 250.622-33.262 5.136-1.706 10.872-0.854 15.36 2.356 4.454 3.208 7.082 8.362 7.082 13.842v750.924c0 8.004-5.546 14.934-13.364 16.658 0 0-13.38 2.986-36.25 7.186-9.234 1.706-18.158-4.438-19.866-13.688-1.706-9.284 4.42-18.176 13.688-19.882 8.722-1.604 16.026-3.020 21.658-4.148v-714.37c-38.674 10.138-124.551 28.518-238.932 28.518-74.359 0-147.403-24.422-170.001-32.7-20.088 8.874-80.809 32.7-154.265 32.7-117.555 0-214.39-19.388-255.998-29.236v715.754c34.082 8.38 134.741 30.276 255.998 30.276 62.226 0 115.591-19.37 136.533-28.126v-671.603c0-6.144 3.31-11.828 8.652-14.848 5.342-3.038 11.93-2.952 17.204 0.222 1.69 1.006 170.785 102.007 320.867 152.029 6.98 2.338 11.674 8.84 11.674 16.196v699.729c0 5.598-2.748 10.838-7.356 14.028-4.574 3.192-10.444 3.926-15.718 1.962-136.549-51.216-274.718-137.197-276.102-138.051-7.988-5-10.428-15.53-5.428-23.518 4.984-7.988 15.514-10.428 23.518-5.428 1.262 0.802 121.463 75.587 246.952 126.053v-662.557c-116.497-40.482-238.13-106.581-290.132-136.173v653.017c0 6.468-3.652 12.374-9.438 15.274-2.936 1.45-72.873 35.926-161.227 35.926-154.213 0-272.774-33.366-277.758-34.798-7.322-2.082-12.374-8.79-12.374-16.402v-750.928c0-5.342 2.526-10.394 6.776-13.62 3.004-2.27 6.622-3.448 10.292-3.448 1.57 0 3.14 0.222 4.676 0.666 1.178 0.324 119.193 33.468 268.388 33.468 62.396 0 115.711-19.422 136.533-28.142v-40.124h-409.597c-28.228 0-51.2 22.972-51.2 51.2v665.595c0 9.42-7.646 17.066-17.066 17.066s-17.066-7.646-17.066-17.066v-665.595c0-47.052 38.28-85.333 85.333-85.333h853.327c47.052 0 85.333 38.28 85.333 85.333v665.595c-0.002 9.422-7.63 17.068-17.068 17.068zM582.109 576.782c3.020-5.906 9.028-9.318 15.24-9.318 2.594 0 5.256 0.598 7.732 1.86 1.006 0.512 101.461 51.542 151.005 67.191 8.978 2.85 13.96 12.442 11.11 21.418-2.834 8.978-12.356 13.978-21.418 11.144-52.19-16.504-151.961-67.191-156.193-69.341-8.398-4.266-11.742-14.542-7.476-22.954zM582.109 371.984c3.020-5.906 9.028-9.318 15.24-9.318 2.594 0 5.256 0.598 7.732 1.86 1.006 0.512 101.461 51.542 151.005 67.191 8.978 2.85 13.96 12.442 11.11 21.418-2.834 8.978-12.356 13.978-21.418 11.144-52.19-16.504-151.961-67.191-156.193-69.341-8.398-4.266-11.742-14.542-7.476-22.954zM413.493 643.271c-105.385 24.73-225.142-6.776-230.176-8.124-9.096-2.44-14.506-11.792-12.066-20.906 2.048-7.628 8.942-12.646 16.47-12.646 1.468 0 2.952 0.188 4.438 0.58 1.144 0.324 116.445 30.652 213.554 7.868 9.13-2.134 18.364 3.55 20.514 12.732 2.148 9.164-3.552 18.346-12.734 20.496zM413.493 540.872c-105.385 24.712-225.142-6.776-230.176-8.124-9.096-2.44-14.506-11.794-12.066-20.906 2.048-7.628 8.942-12.646 16.47-12.646 1.468 0 2.952 0.188 4.438 0.58 1.144 0.324 116.445 30.652 213.554 7.868 9.13-2.134 18.364 3.55 20.514 12.732 2.148 9.164-3.552 18.346-12.734 20.496zM582.109 269.584c3.020-5.906 9.028-9.318 15.24-9.318 2.594 0 5.256 0.598 7.732 1.86 1.006 0.512 101.461 51.542 151.005 67.191 8.978 2.85 13.96 12.442 11.11 21.418-2.834 8.976-12.356 13.978-21.418 11.144-52.19-16.504-151.961-67.191-156.193-69.341-8.398-4.266-11.742-14.542-7.476-22.954zM413.493 438.473c-105.385 24.712-225.142-6.758-230.176-8.124-9.096-2.44-14.506-11.794-12.066-20.906 2.048-7.628 8.942-12.664 16.47-12.664 1.468 0 2.952 0.204 4.438 0.598 1.144 0.324 116.445 30.652 213.554 7.868 9.13-2.134 18.364 3.55 20.514 12.732 2.148 9.164-3.552 18.346-12.734 20.496zM413.493 233.675c-105.385 24.73-225.142-6.776-230.176-8.124-9.096-2.44-14.506-11.794-12.066-20.906 2.048-7.628 8.942-12.664 16.47-12.664 1.468 0 2.952 0.204 4.438 0.598 1.144 0.324 116.445 30.652 213.554 7.868 9.13-2.116 18.364 3.55 20.514 12.732 2.148 9.164-3.552 18.346-12.734 20.496zM413.493 336.074c-105.385 24.73-225.142-6.758-230.176-8.124-9.096-2.44-14.506-11.794-12.066-20.906 2.048-7.628 8.942-12.664 16.47-12.664 1.468 0 2.952 0.204 4.438 0.598 1.144 0.324 116.445 30.652 213.554 7.868 9.13-2.134 18.364 3.55 20.514 12.732 2.148 9.164-3.552 18.346-12.734 20.496z" />
<glyph unicode="&#xe92f;" glyph-name="image" d="M482.868 214.069c6.674-6.674 17.46-6.674 24.132 0l141.534 141.534 107.4-107.4c6.674-6.672 17.46-6.672 24.132 0 6.672 6.674 6.672 17.46 0 24.132l-119.466 119.466c-6.674 6.674-17.46 6.674-24.132 0l-141.534-141.534-73.268 73.268c-6.674 6.672-17.46 6.672-24.132 0l-187.734-187.734c-4.882-4.882-6.348-12.22-3.704-18.602 2.646-6.366 8.874-10.53 15.77-10.53h546.134c9.438 0 17.066 7.646 17.066 17.066s-7.628 17.066-17.066 17.066h-504.934l146.534 146.534 73.268-73.266zM938.666 721.067h-170.666c-28.228 0-51.2 22.972-51.2 51.2v85.334c0 9.42-7.628 17.066-17.066 17.066s-17.066-7.646-17.066-17.066v-85.334c0-47.052 38.28-85.334 85.334-85.334h153.6v-665.6c0-28.228-22.972-51.2-51.2-51.2h-716.802c-28.228 0-51.2 22.972-51.2 51.2v853.334c0 28.228 22.972 51.2 51.2 51.2h539.068l165.666-165.666c6.674-6.674 17.46-6.674 24.132 0 6.672 6.672 6.672 17.46 0 24.132l-170.666 170.668c-3.192 3.208-7.526 5-12.066 5h-546.134c-47.052 0-85.334-38.28-85.334-85.334v-853.334c0-47.052 38.282-85.332 85.334-85.332h716.8c47.052 0 85.334 38.28 85.334 85.334v682.666c0 9.42-7.63 17.066-17.068 17.066zM254.942 439.467c3.158-5.478 8.892-8.534 14.796-8.534 2.884 0 5.82 0.734 8.516 2.286l31.522 18.194c8.534-8.688 19.438-14.9 31.574-18.040v-36.572c0-9.42 7.646-17.066 17.066-17.066s17.066 7.646 17.066 17.066v36.59c12.134 3.14 23.022 9.37 31.556 18.056l31.54-18.21c2.68-1.554 5.632-2.286 8.516-2.286 5.906 0 11.64 3.056 14.796 8.534 4.71 8.158 1.928 18.602-6.246 23.314l-31.726 18.312c1.622 5.802 2.748 11.792 2.748 18.108s-1.144 12.322-2.748 18.124l31.71 18.312c8.174 4.728 10.956 15.156 6.246 23.312-4.71 8.174-15.172 10.974-23.312 6.264l-31.54-18.21c-8.534 8.67-19.422 14.882-31.556 18.040v36.556c0 9.42-7.646 17.066-17.066 17.066s-17.066-7.646-17.066-17.066v-36.556c-12.134-3.158-23.040-9.37-31.574-18.056l-31.506 18.194c-8.208 4.71-18.62 1.912-23.312-6.246-4.71-8.174-1.912-18.602 6.246-23.33l31.692-18.296c-1.604-5.802-2.748-11.794-2.748-18.108s1.144-12.322 2.748-18.124l-31.692-18.312c-8.174-4.712-10.956-15.158-6.246-23.316zM358.4 533.351c18.824 0 34.134-15.308 34.134-34.134 0-18.808-15.292-34.116-34.1-34.134h-0.052c-18.824 0-34.116 15.308-34.116 34.134s15.31 34.134 34.134 34.134z" />
<glyph unicode="&#xe930;" glyph-name="spreadsheet" d="M938.666 721.067h-170.666c-28.228 0-51.2 22.972-51.2 51.2v85.334c0 9.42-7.646 17.066-17.066 17.066s-17.066-7.646-17.066-17.066v-85.334c0-47.052 38.28-85.334 85.334-85.334h153.6v-665.6c0-28.228-22.972-51.2-51.2-51.2h-716.802c-28.228 0-51.2 22.972-51.2 51.2v853.334c0 28.228 22.972 51.2 51.2 51.2h539.068l165.666-165.666c6.674-6.674 17.46-6.674 24.132 0 6.672 6.672 6.672 17.46 0 24.132l-170.666 170.668c-3.192 3.208-7.544 5-12.066 5h-546.134c-47.052 0-85.334-38.28-85.334-85.334v-853.334c0-47.052 38.282-85.332 85.334-85.332h716.8c47.052 0 85.334 38.28 85.334 85.334v682.666c0 9.42-7.646 17.066-17.068 17.066zM768 106.667c9.42 0 17.066 7.646 17.066 17.066v341.334c0 9.42-7.646 17.066-17.066 17.066h-512c-9.42 0-17.066-7.646-17.066-17.066v-341.334c0-9.42 7.646-17.066 17.066-17.066h443.734c9.42 0 17.066 7.646 17.066 17.066s-7.646 17.066-17.066 17.066h-119.466v68.266h170.666v-85.334c0-9.418 7.646-17.064 17.066-17.064zM341.334 140.801h-68.266v68.266h68.266v-68.266zM341.334 243.201h-68.266v68.266h68.266v-68.266zM341.334 345.601h-68.266v102.4h68.266v-102.4zM546.134 140.801h-170.666v68.266h170.666v-68.266zM546.134 243.201h-170.666v68.266h170.666v-68.266zM546.134 345.601h-170.666v102.4h170.666v-102.4zM580.266 448.001h170.666v-102.4h-170.666v102.4zM580.266 243.201v68.266h170.666v-68.266h-170.666z" />
<glyph unicode="&#xe931;" glyph-name="text" d="M460.8 311.467h273.066c9.42 0 17.066 7.646 17.066 17.066s-7.646 17.066-17.066 17.066h-273.066c-9.42 0-17.066-7.646-17.066-17.066s7.646-17.066 17.066-17.066zM699.734 448.001h-102.4c-9.42 0-17.066-7.646-17.066-17.066s7.646-17.066 17.066-17.066h102.4c9.42 0 17.066 7.646 17.066 17.066s-7.646 17.066-17.066 17.066zM256 652.801h170.666c9.42 0 17.066 7.646 17.066 17.066s-7.646 17.066-17.066 17.066h-170.666c-9.42 0-17.066-7.646-17.066-17.066s7.646-17.066 17.066-17.066zM256 413.867h136.534c9.42 0 17.066 7.646 17.066 17.066s-7.646 17.066-17.066 17.066h-136.534c-9.42 0-17.066-7.646-17.066-17.066s7.646-17.066 17.066-17.066zM938.666 721.067h-170.666c-28.228 0-51.2 22.972-51.2 51.2v85.334c0 9.42-7.646 17.066-17.066 17.066s-17.066-7.646-17.066-17.066v-85.334c0-47.052 38.28-85.334 85.334-85.334h153.6v-665.6c0-28.228-22.972-51.2-51.2-51.2h-716.802c-28.228 0-51.2 22.972-51.2 51.2v853.334c0 28.228 22.972 51.2 51.2 51.2h539.068l165.666-165.666c6.674-6.674 17.46-6.674 24.132 0 6.672 6.672 6.672 17.46 0 24.132l-170.666 170.668c-3.192 3.208-7.544 5-12.066 5h-546.134c-47.052 0-85.334-38.28-85.334-85.334v-853.334c0-47.052 38.282-85.332 85.334-85.332h716.8c47.052 0 85.334 38.28 85.334 85.334v682.666c0 9.42-7.646 17.066-17.068 17.066zM256 516.267h307.2c9.42 0 17.066 7.646 17.066 17.066s-7.646 17.066-17.066 17.066h-307.2c-9.42 0-17.066-7.646-17.066-17.066s7.646-17.066 17.066-17.066zM460.8 413.867h68.266c9.42 0 17.066 7.646 17.066 17.066s-7.646 17.066-17.066 17.066h-68.266c-9.42 0-17.066-7.646-17.066-17.066s7.646-17.066 17.066-17.066zM529.066 106.667h170.666c9.42 0 17.066 7.646 17.066 17.066s-7.646 17.066-17.066 17.066h-170.666c-9.42 0-17.066-7.646-17.066-17.066s7.646-17.066 17.066-17.066zM785.066 226.135c0 9.42-7.646 17.066-17.066 17.066h-102.4c-9.42 0-17.066-7.646-17.066-17.066s7.646-17.066 17.066-17.066h102.4c9.42-0.002 17.066 7.644 17.066 17.066zM768 550.401h-136.534c-9.42 0-17.066-7.646-17.066-17.066s7.646-17.066 17.066-17.066h136.534c9.42 0 17.066 7.646 17.066 17.066s-7.646 17.066-17.066 17.066zM256 106.667h204.8c9.42 0 17.066 7.646 17.066 17.066s-7.646 17.066-17.066 17.066h-204.8c-9.42 0-17.066-7.646-17.066-17.066s7.646-17.066 17.066-17.066zM256 209.067h102.4c9.42 0 17.066 7.646 17.066 17.066s-7.646 17.066-17.066 17.066h-102.4c-9.42 0-17.066-7.646-17.066-17.066s7.646-17.066 17.066-17.066zM614.4 226.135c0 9.42-7.646 17.066-17.066 17.066h-170.666c-9.42 0-17.066-7.646-17.066-17.066s7.646-17.066 17.066-17.066h170.666c9.42-0.002 17.066 7.644 17.066 17.066zM256 311.467h136.534c9.42 0 17.066 7.646 17.066 17.066s-7.646 17.066-17.066 17.066h-136.534c-9.42 0-17.066-7.646-17.066-17.066s7.646-17.066 17.066-17.066z" />
<glyph unicode="&#xe932;" glyph-name="document" d="M256.004 209.063h102.399c9.42 0 17.066 7.646 17.066 17.066s-7.646 17.066-17.066 17.066h-102.399c-9.42 0-17.066-7.646-17.066-17.066s7.644-17.066 17.066-17.066zM950.727 716.056l-238.931 238.929c-4.898 4.898-12.236 6.366-18.602 3.704-6.366-2.646-10.53-8.874-10.53-15.77v-170.664c0-47.853 37.477-85.333 85.333-85.333h68.265c9.42 0 17.066 7.646 17.066 17.066s-7.646 17.066-17.066 17.066h-68.265c-29.184 0-51.199 22.016-51.199 51.199v129.468l204.797-204.797v-675.593c0-28.228-22.972-51.199-51.199-51.199h-716.79c-28.228 0-51.199 22.972-51.199 51.199v853.322c0 28.228 22.972 51.199 51.199 51.199h477.859c9.42 0 17.066 7.646 17.066 17.066s-7.646 17.066-17.066 17.066h-477.859c-47.051 0-85.333-38.279-85.333-85.333v-853.322c0-47.051 38.279-85.333 85.333-85.333h716.79c47.051 0 85.333 38.279 85.333 85.333v682.661c-0.002 4.522-1.81 8.874-5.002 12.066zM256.004 106.665h170.664c9.42 0 17.066 7.646 17.066 17.066s-7.646 17.066-17.066 17.066h-170.664c-9.42 0-17.066-7.646-17.066-17.066s7.644-17.066 17.066-17.066zM614.4 226.129c0 9.42-7.646 17.066-17.066 17.066h-170.664c-9.42 0-17.066-7.646-17.066-17.066s7.646-17.066 17.066-17.066h170.664c9.42 0 17.066 7.646 17.066 17.066zM785.063 567.458c0 9.42-7.646 17.066-17.066 17.066h-511.993c-9.42 0-17.066-7.646-17.066-17.066v-238.931c0-9.42 7.646-17.066 17.066-17.066h102.399c4.522 0 8.858 1.792 12.066 5l107.399 107.399 39.133-39.133c6.674-6.672 17.46-6.672 24.132 0l73.267 73.267 73.267-73.267c6.672-6.672 17.46-6.672 24.132 0 6.674 6.674 6.674 17.46 0 24.132l-85.333 85.333c-6.674 6.674-17.46 6.674-24.132 0l-73.267-73.267-39.133 39.133c-6.672 6.672-17.46 6.672-24.132 0l-114.464-114.464h-78.267v204.797h477.859v-204.797h-290.128c-9.42 0-17.066-7.646-17.066-17.066s7.646-17.066 17.066-17.066h307.196c9.42 0 17.066 7.646 17.066 17.066v238.931zM307.204 482.126c0-18.824 15.308-34.134 34.134-34.134 18.824 0 34.134 15.308 34.134 34.134s-15.308 34.134-34.134 34.134c-18.826 0-34.134-15.308-34.134-34.134zM494.933 106.665h238.931c9.42 0 17.066 7.646 17.066 17.066s-7.646 17.066-17.066 17.066h-238.931c-9.42 0-17.066-7.646-17.066-17.066s7.646-17.066 17.066-17.066zM256.004 652.791h170.664c9.42 0 17.066 7.646 17.066 17.066s-7.646 17.066-17.066 17.066h-170.664c-9.42 0-17.066-7.646-17.066-17.066-0.002-9.42 7.644-17.066 17.066-17.066zM785.063 226.129c0 9.42-7.646 17.066-17.066 17.066h-102.417c-9.42 0-17.066-7.646-17.066-17.066s7.646-17.066 17.066-17.066h102.417c9.42 0 17.066 7.646 17.066 17.066z" />
<glyph unicode="&#xe933;" glyph-name="video" d="M938.666 721.067h-170.666c-28.228 0-51.2 22.972-51.2 51.2v85.334c0 9.42-7.628 17.066-17.066 17.066s-17.066-7.646-17.066-17.066v-85.334c0-47.052 38.28-85.334 85.334-85.334h153.6v-665.6c0-28.228-22.972-51.2-51.2-51.2h-716.802c-28.228 0-51.2 22.972-51.2 51.2v853.334c0 28.228 22.972 51.2 51.2 51.2h539.068l165.666-165.666c6.674-6.674 17.46-6.674 24.132 0 6.672 6.656 6.672 17.46 0 24.132l-170.666 170.668c-3.192 3.192-7.526 5-12.066 5h-546.134c-47.052 0-85.334-38.28-85.334-85.334v-853.334c0-47.052 38.282-85.332 85.334-85.332h716.8c47.052 0 85.334 38.28 85.334 85.334v682.666c0 9.42-7.63 17.066-17.068 17.066zM273.066 345.601c0-131.754 107.178-238.934 238.934-238.934s238.934 107.18 238.934 238.934-107.18 238.934-238.934 238.934-238.934-107.18-238.934-238.934zM512 550.401c112.93 0 204.8-91.87 204.8-204.8s-91.87-204.8-204.8-204.8-204.8 91.87-204.8 204.8 91.87 204.8 204.8 204.8zM452.232 262.571c2.646-1.536 5.598-2.304 8.568-2.304 2.918 0 5.854 0.75 8.466 2.252l119.466 68.266c5.324 3.020 8.602 8.686 8.602 14.814s-3.276 11.776-8.602 14.814l-119.466 68.266c-5.274 3.038-11.776 3.004-17.032-0.052-5.274-3.054-8.5-8.686-8.5-14.762v-136.534c0-6.090 3.224-11.704 8.498-14.76zM477.866 384.461l67.994-38.86-67.994-38.86v77.72z" />
<glyph unicode="&#xe934;" glyph-name="conversation-1" d="M692 322.001c-11.044 0-20-8.954-20-20v-138c0-55.14-44.86-100-100-100h-215.936c-11.042 0-19.992-8.946-20-19.986l-0.028-39.764-47.736 47.734c-3.090 7.094-10.162 12.016-18.342 12.016h-129.958c-55.14 0-100 44.86-100 100v308c0 55.14 44.86 100 100 100h202c11.044 0 20 8.954 20 20s-8.956 20-20 20h-202c-77.196 0-140-62.804-140-140v-308c0-77.196 62.804-140 140-140h119.716l82.142-82.142c3.826-3.826 8.94-5.858 14.146-5.858 2.574 0 5.172 0.498 7.642 1.52 7.474 3.092 12.348 10.38 12.354 18.466l0.048 68.014h195.952c77.196 0 140 62.804 140 140v138c0 11.046-8.956 20-20 20zM733.31 960.001h-50.618c-160.288 0-290.692-130.404-290.692-290.692s130.404-290.69 290.69-290.69h50.618c25.018 0 49.78 3.178 73.78 9.458l74.774-74.732c3.826-3.822 8.938-5.854 14.142-5.854 2.578 0 5.178 0.498 7.652 1.524 7.472 3.096 12.344 10.388 12.344 18.476v115.712c31.658 25.638 57.956 58.024 76.412 94.204 20.962 41.092 31.588 85.47 31.588 131.902 0 160.288-130.404 290.692-290.69 290.692zM883.966 468.931c-5.014-3.778-7.966-9.694-7.966-15.976v-77.2l-48.942 48.916c-3.808 3.804-8.916 5.854-14.14 5.854-1.96 0-3.94-0.29-5.872-0.884-23.806-7.316-48.614-11.024-73.736-11.024h-50.618c-138.234 0-250.692 112.46-250.692 250.692s112.46 250.692 250.692 250.692h50.618c138.232 0 250.69-112.46 250.69-250.692 0-79.462-36.46-152.498-100.034-200.378zM798.066 741.159c-2.886 41.87-36.638 75.622-78.51 78.508-23.736 1.63-46.388-6.376-63.726-22.562-17.1-15.962-26.906-38.526-26.906-61.908 0-11.046 8.956-20 20-20s20 8.954 20 20c0 12.518 5.044 24.12 14.2 32.666 9.148 8.538 21.104 12.764 33.684 11.896 22.056-1.52 39.834-19.298 41.354-41.352 1.536-22.274-13.078-41.958-34.746-46.806-17.556-3.928-29.816-19.184-29.816-37.098v-48.050c0-11.046 8.956-20 20-20 11.046 0 20 8.954 19.998 20v46.452c40.3 9.736 67.338 46.612 64.468 88.254zM727.74 541.481c-3.72 3.72-8.88 5.86-14.14 5.86s-10.42-2.14-14.14-5.86c-3.72-3.72-5.86-8.88-5.86-14.14 0-5.28 2.142-10.44 5.86-14.16 3.72-3.72 8.88-5.84 14.14-5.84s10.42 2.12 14.14 5.84c3.72 3.74 5.86 8.88 5.86 14.16 0 5.26-2.142 10.42-5.86 14.14zM550 340.001h-422c-11.044 0-20-8.954-20-20s8.956-20 20-20h422c11.046 0 20 8.954 20 20s-8.956 20-20 20zM564.138 222.141c-3.718 3.72-8.878 5.86-14.138 5.86s-10.42-2.14-14.14-5.86c-3.722-3.72-5.86-8.88-5.86-14.14s2.14-10.42 5.86-14.14c3.72-3.72 8.88-5.86 14.14-5.86s10.42 2.14 14.138 5.86c3.722 3.72 5.862 8.86 5.862 14.14 0 5.26-2.142 10.42-5.862 14.14zM471.334 228.001h-343.334c-11.044 0-20-8.954-20-20s8.956-20 20-20h343.334c11.046 0 20 8.954 20 20s-8.956 20-20 20zM420 452.001h-292c-11.044 0-20-8.954-20-20s8.956-20 20-20h292c11.046 0 20 8.954 20 20s-8.956 20-20 20z" />
<glyph unicode="&#xe935;" glyph-name="archive" d="M443.734 465.067c-18.824 0-34.134-15.308-34.134-34.134v-170.666c0-18.824 15.308-34.134 34.134-34.134h102.4c18.808 0 34.134 15.308 34.134 34.134v170.666c0 18.824-15.326 34.134-34.134 34.134-9.438 0-17.066-7.646-17.066-17.066s7.628-17.066 17.066-17.066v-170.666h-102.4v170.666h51.2c9.42 0 17.066 7.646 17.066 17.066v68.266c0 9.42-7.646 17.066-17.066 17.066h-17.066v34.134h17.066c9.42 0 17.066 7.646 17.066 17.066v68.268c0 9.42-7.646 17.066-17.066 17.066h-17.066v34.134h17.066c9.42 0 17.066 7.646 17.066 17.066v68.268c0 9.42-7.646 17.066-17.066 17.066h-17.066v34.134h17.066c9.42 0 17.066 7.646 17.066 17.066v51.2h180.668l165.666-165.666c6.656-6.674 17.46-6.674 24.132 0 6.656 6.672 6.656 17.46 0 24.132l-170.666 170.666c-3.208 3.208-7.544 5-12.066 5h-204.8c-9.438 0-17.066-7.646-17.066-17.066v-51.2h-17.068c-9.438 0-17.066-7.646-17.066-17.066v-68.266c0-9.42 7.628-17.066 17.066-17.066h17.066v-34.134h-17.066c-9.438 0-17.066-7.646-17.066-17.066v-68.268c0-9.42 7.628-17.066 17.066-17.066h17.066v-34.134h-17.066c-9.438 0-17.066-7.646-17.066-17.066v-68.266c0-9.42 7.628-17.066 17.066-17.066h17.066v-34.134h-34.132zM495.446 328.535h-0.188c-9.404 0-16.964-7.646-16.964-17.066s7.714-17.066 17.152-17.066c9.42 0 17.066 7.646 17.066 17.066s-7.646 17.066-17.066 17.066zM938.666 721.067h-170.666c-28.246 0-51.2 22.972-51.2 51.2v85.334c0 9.42-7.646 17.066-17.066 17.066-9.438 0-17.066-7.646-17.066-17.066v-85.334c0-47.052 38.28-85.334 85.334-85.334h153.6v-665.6c0-28.228-22.972-51.2-51.2-51.2h-716.802c-28.246 0-51.2 22.972-51.2 51.2v853.334c0 28.228 22.954 51.2 51.2 51.2h270.934c9.42 0 17.066 7.646 17.066 17.066s-7.646 17.068-17.066 17.068h-270.934c-47.052 0-85.334-38.28-85.334-85.334v-853.334c0-47.052 38.282-85.332 85.334-85.332h716.8c47.052 0 85.334 38.28 85.334 85.334v682.666c0 9.42-7.646 17.066-17.068 17.066z" />
<glyph unicode="&#xe936;" glyph-name="manual" horiz-adv-x="1158" d="M696.32 102.111c-26.89-27.65-63.83-43.24-102.4-43.23h-593.92v-40.96h593.92v-40.96h-593.92v-40.96h593.92c56.53 0.070 102.33 45.87 102.4 102.4v63.71zM0 714.241h389.12v-286.72h-389.12zM901.12 448.001c-0.070 67.84-55.040 122.81-122.88 122.88-13.96 0.030-27.82-2.37-40.96-7.090v-231.58c13.14-4.72 27-7.12 40.96-7.090 67.84 0.070 122.81 55.040 122.88 122.88zM737.28 79.361h46.122c22.123 0 40.891 16.245 44.062 38.14l4.716 32.56c3.080 22.22 18.16 40.93 39.22 48.66 6.15 2.29 12.15 4.83 18.010 7.37 20.27 9.17 43.95 6.49 61.66-6.98l26.069-19.552c17.725-13.294 42.528-11.531 58.195 4.136l7.277 7.277c15.678 15.678 17.431 40.502 4.111 58.228l-19.652 26.152c-13.48 17.84-16.080 41.63-6.76 61.96 2.38 5.46 4.92 11.48 7.25 17.75 7.78 21.040 26.52 36.070 48.75 39.080l32.442 4.707c21.89 3.176 38.128 21.941 38.128 44.060v10.254c0 22.123-16.245 40.891-38.14 44.062l-32.56 4.716c-22.22 3.080-40.93 18.16-48.66 39.22-2.29 6.15-4.83 12.15-7.37 18.010-9.17 20.27-6.49 43.95 6.98 61.66l19.552 26.069c13.294 17.725 11.531 42.528-4.136 58.195l-7.277 7.277c-15.678 15.678-40.502 17.431-58.228 4.111l-26.152-19.652c-17.84-13.46-41.63-16.060-61.96-6.76-5.46 2.38-11.48 4.92-17.75 7.25-21.040 7.78-36.070 26.52-39.080 48.75l-4.664 32.393c-3.155 21.912-21.93 38.177-44.067 38.177h-46.089v-210.17c66.42 17.43 136.67-8.41 175.96-64.73s39.29-131.16 0-187.48c-39.29-56.32-109.54-82.16-175.96-64.73v-210.17zM0 386.561h389.12v-286.72h-300.077c-49.177 0-89.043 39.866-89.043 89.043v197.677zM696.32 857.601c-0.070 56.53-45.87 102.33-102.4 102.4h-40.96v-204.8h143.36v102.4zM696.32 386.561h-143.36v-286.72h40.96c56.53 0.070 102.33 45.87 102.4 102.4v184.32zM552.96 714.241h143.36v-286.72h-143.36zM430.080 960.001h81.92v-860.16h-81.92zM89.043 960.001h300.077v-204.8h-389.12v115.757c0 49.177 39.866 89.043 89.043 89.043z" />
<glyph unicode="&#xe937;" glyph-name="light-up" d="M47.476 183.934c-15.56 15.5-15.56 40.6-0.002 56.096l434.377 472.356c8.296 8.261 19.294 11.801 30.168 11.252 10.837 0.549 21.872-2.991 30.168-11.252l434.338-472.314c15.56-15.499 15.56-40.638 0-56.138s-40.808-15.499-56.368 0l-408.179 443.835-408.137-443.835c-15.56-15.499-40.807-15.499-56.367 0z" />
<glyph unicode="&#xe938;" glyph-name="light-down" d="M976.524 712.068c15.56-15.5 15.56-40.6 0.002-56.096l-434.377-472.356c-8.296-8.261-19.294-11.801-30.168-11.252-10.837-0.549-21.872 2.991-30.168 11.252l-434.338 472.314c-15.56 15.499-15.56 40.638 0 56.138s40.808 15.499 56.368 0l408.179-443.835 408.137 443.835c15.56 15.499 40.807 15.499 56.367 0z" />
<glyph unicode="&#xe939;" glyph-name="light-right" horiz-adv-x="551" d="M11.625 948.331c15.5 15.56 40.6 15.56 56.096 0.002l472.356-434.377c8.261-8.296 11.801-19.294 11.252-30.168 0.549-10.837-2.991-21.872-11.252-30.168l-472.314-434.338c-15.499-15.56-40.638-15.56-56.138 0s-15.499 40.808 0 56.368l443.835 408.179-443.835 408.137c-15.499 15.56-15.499 40.807 0 56.367z" />
<glyph unicode="&#xe93a;" glyph-name="light-left" horiz-adv-x="551" d="M539.375-52.329c-15.5-15.56-40.6-15.56-56.096-0.002l-472.356 434.377c-8.261 8.296-11.801 19.294-11.252 30.168-0.549 10.837 2.991 21.872 11.252 30.168l472.314 434.338c15.499 15.56 40.638 15.56 56.138 0s15.499-40.808 0-56.368l-443.835-408.179 443.835-408.137c15.499-15.56 15.499-40.807 0-56.367z" />
<glyph unicode="&#xe93b;" glyph-name="pencil" horiz-adv-x="887" d="M55.507 29.266l10.263 3.759 0.221 0.283 10.042 3.476-18.199 14.218-2.328-21.736zM525.939 952.208l311.306-243.219c11.833-9.245 14.516-25.828 5.952-36.789l-446.22-571.136c-3.071-3.931-7.653-6.682-12.196-8.124l-173.987-63.23-123.347-45.304-0.221-0.283-33.555-12.254-18.079-6.236-0.221-0.283c-4.016-1.397-8.728-1.793-13.609-1.145-14.195 2.478-25.117 16.002-23.419 30.075l11.666 108.119c-0.169 1.045-0.111 2.34 0.247 3.429l7.829 74.444 19.547 183.891c0.162 3.951 1.346 7.988 3.396 11.833 0.443 0.567 0.872 1.116 1.093 1.399l446.663 571.703c8.583 10.946 25.322 12.355 37.155 3.11zM785.025 685.966l-268.811 210.018-415.258-531.506 268.811-210.018 415.258 531.506zM131.58 57.208l57.843 20.882 133.611 49.062-237.27 185.375-15.282-141.511-6.268-61.177 67.365-52.632z" />
<glyph unicode="&#xe93c;" glyph-name="man-user" d="M512 459.198c113.851 0 206.155 112.108 206.155 250.4 0 138.296-30.305 250.403-206.155 250.403s-206.16-112.108-206.16-250.403c0-138.293 92.303-250.4 206.16-250.4zM122.614 76.865c-0.035 8.432-0.070 2.376 0 0v0zM901.369 70.28c0.111 2.308 0.038 16.015 0 0v0zM900.93 86.977c-3.818 240.909-35.281 309.555-276.047 353.008 0 0-33.891-43.186-112.886-43.186s-112.892 43.186-112.892 43.186c-238.139-42.979-271.515-110.607-275.904-345.182-0.36-19.155-0.527-20.161-0.591-17.938 0.015-4.166 0.032-11.873 0.032-25.31 0 0 57.321-115.554 389.354-115.554 332.028 0 389.354 115.554 389.354 115.554 0 8.634 0.006 14.637 0.015 18.722-0.064-1.375-0.193 1.29-0.436 16.7z" />
<glyph unicode="&#xe93d;" glyph-name="move" d="M1010.365 480.912l-116.364 116.364c-13.309 13.315-33.339 17.29-50.725 10.091-17.392-7.205-28.734-24.176-28.734-43.002v-69.818h-255.997v256h69.818c18.826 0 35.797 11.342 43.002 28.734 7.202 17.392 3.221 37.413-10.091 50.725l-116.364 116.364c-18.174 18.178-47.647 18.178-65.825 0l-116.364-116.364c-13.312-13.312-17.293-33.333-10.091-50.725 7.205-17.392 24.179-28.734 43.002-28.734h69.821v-256h-256v69.818c0 18.826-11.342 35.8-28.734 43.002-17.396 7.202-37.416 3.221-50.725-10.091l-116.364-116.364c-18.178-18.178-18.178-47.647 0-65.825l116.364-116.364c8.906-8.906 20.806-13.635 32.923-13.635 5.995 0 12.043 1.161 17.802 3.544 17.392 7.205 28.734 24.179 28.734 43.002v69.821h256v-256h-69.818c-18.826 0-35.8-11.342-43.002-28.734s-3.221-37.413 10.091-50.725l116.364-116.364c9.086-9.089 20.998-13.632 32.911-13.632s23.825 4.543 32.911 13.635l116.364 116.364c13.312 13.312 17.293 33.333 10.091 50.725-7.205 17.392-24.176 28.734-43.002 28.734h-69.818v255.997h256v-69.818c0-18.826 11.338-35.8 28.734-43.002 5.756-2.386 11.807-3.544 17.802-3.544 12.111 0 24.017 4.729 32.92 13.635l116.364 116.364c18.181 18.174 18.181 47.644 0 65.821z" />
<glyph unicode="&#xe93e;" glyph-name="list" d="M672 896.001h-69.504c-13.184 37.248-48.768 64-90.496 64s-77.312-26.752-90.56-64h-69.44c-17.664 0-32-14.336-32-32v-128c0-17.664 14.336-32 32-32h320c17.664 0 32 14.336 32 32v128c0 17.664-14.336 32-32 32zM832 832.001h-64v-96c0-52.928-43.072-96-96-96h-320c-52.928 0-96 43.072-96 96v96h-64c-35.264 0-64-28.736-64-64v-768c0-35.904 28.096-64 64-64h640c35.904 0 64 28.096 64 64v768c0 35.904-28.096 64-64 64zM502.656 265.345l-128-128c-6.272-6.208-14.464-9.344-22.656-9.344s-16.384 3.136-22.656 9.344l-64 64c-12.48 12.48-12.48 32.768 0 45.248s32.768 12.48 45.248 0l41.408-41.344 105.344 105.344c12.48 12.48 32.768 12.48 45.248 0s12.544-32.704 0.064-45.248zM502.656 521.345l-128-128c-6.272-6.208-14.464-9.344-22.656-9.344s-16.384 3.136-22.656 9.344l-64 64c-12.48 12.48-12.48 32.768 0 45.248s32.768 12.48 45.248 0l41.408-41.344 105.344 105.344c12.48 12.48 32.768 12.48 45.248 0s12.544-32.704 0.064-45.248zM736 192.001h-128c-17.664 0-32 14.336-32 32s14.336 32 32 32h128c17.664 0 32-14.336 32-32s-14.336-32-32-32zM736 448.001h-128c-17.664 0-32 14.336-32 32s14.336 32 32 32h128c17.664 0 32-14.336 32-32s-14.336-32-32-32z" />
<glyph unicode="&#xe93f;" glyph-name="speaker" d="M814.546 960.001c-124.136 0-208.942-71.586-283.788-134.75-62.324-52.55-116.084-97.978-181.666-97.978h-256c-63.954 0-93.092-120.646-93.092-232.726 0-112.082 29.138-232.728 93.090-232.728h256c65.582 0 119.342-45.428 181.666-97.978 74.846-63.162 159.652-134.75 283.788-134.75 137.496 0 209.456 234.172 209.456 465.456s-71.96 465.454-209.454 465.454zM814.546 122.183c-39.518 0-116.364 131.444-116.364 372.364s76.846 372.364 116.364 372.364c39.516 0 116.364-131.444 116.364-372.364s-76.848-372.364-116.364-372.364zM779.916 629.249c-6.702 1.676-13.544 0.466-19.13-3.352-5.586-3.864-9.17-9.96-9.914-16.664-4.142-38.866-6.144-76.382-6.144-114.688s2.002-75.822 6.19-114.642c0.744-6.75 4.328-12.8 9.914-16.664 3.91-2.7 8.564-4.096 13.218-4.096 1.954 0 3.91 0.232 5.864 0.744 61.486 16.012 104.448 71.4 104.448 134.656 0.002 63.258-42.96 118.648-104.446 134.706zM434.642 98.911c-13.312 0-25.042 8.472-29.23 21.086l-26.206 78.522c-2.792 8.378-12.894 14.802-21.644 16.058-2.84 0.372-5.726 0.698-8.472 0.698h-159.604c-7.308 0-14.196-3.444-18.572-9.262s-5.818-13.406-3.816-20.386l52.038-182.086c11.358-39.752 48.174-67.54 89.506-67.54h125.998c42.638 0 77.36 34.722 77.36 77.358v8.192c0 42.636-34.722 77.36-77.358 77.36z" />
<glyph unicode="&#xe940;" glyph-name="video-camera" d="M1017.846 433.847c-11.077 19.692-36.923 27.077-57.845 14.769l-140.306-81.23-35.692-20.923v-194.459l33.23-19.692c1.231 0 1.231-1.231 2.462-1.231l137.844-79.999c6.154-4.923 14.769-7.385 23.384-7.385 23.384 0 41.846 18.461 41.846 41.846v164.921l1.231 162.46c0 7.385-1.231 14.769-6.154 20.923zM198.164 496.616c109.537 0 198.151 88.614 198.151 198.151s-88.614 198.151-198.151 198.151-198.151-88.614-198.151-198.151c-1.231-109.537 88.614-198.151 198.151-198.151zM198.164 775.997c45.538 0 81.23-36.923 81.23-81.23 0-45.538-36.923-81.23-81.23-81.23s-81.23 36.923-81.23 81.23c-1.231 45.538 35.692 81.23 81.23 81.23zM700.312 485.539c-32-16-67.691-25.846-105.845-25.846-46.769 0-91.076 13.538-127.998 38.153h-140.306c-36.923-24.615-81.23-38.153-127.998-38.153-38.153 0-73.845 8.615-105.845 25.846-28.307-16-47.999-47.999-47.999-82.461v-300.304c0-55.384 45.538-99.691 99.691-99.691h505.84c55.384 0 99.691 45.538 99.691 99.691v300.304c-1.231 34.461-20.923 66.461-49.23 82.461zM594.467 496.616c109.537 0 198.151 88.614 198.151 198.151s-88.614 198.151-198.151 198.151c-109.537 0-198.151-88.614-198.151-198.151s88.614-198.151 198.151-198.151zM594.467 775.997c45.538 0 81.23-36.923 81.23-81.23 0-45.538-36.923-81.23-81.23-81.23s-81.23 36.923-81.23 81.23c0 45.538 35.692 81.23 81.23 81.23z" />
<glyph unicode="&#xe941;" glyph-name="garbage" d="M901.8 813.001h-236.8v104.2c0 11.6-9.4 20.8-20.8 20.8h-264.4c-11.6 0-20.8-9.4-20.8-20.8v-104.2h-236.8c-11.6 0-20.8-9.4-20.8-20.8v-129.8c0-11.6 9.4-20.8 20.8-20.8h49.2v-529.4c0-85 69.2-154.2 154.2-154.2h372.8c85 0 154.2 69.2 154.2 154.2v529.2h49.2c11.6 0 20.8 9.4 20.8 20.8v130c0 11.4-9.4 20.8-20.8 20.8zM400.8 896.201h222.6v-83.4h-222.6v83.4zM810.8 112.201c0-62-50.4-112.4-112.4-112.4h-372.8c-62 0-112.4 50.4-112.4 112.4v529.2h597.6v-529.2zM880.8 683.201h-737.6v88h737.8v-88zM328.2 106.001c11.6 0 20.8 9.4 20.8 20.8v387.4c0 11.6-9.4 20.8-20.8 20.8-11.6 0-20.8-9.4-20.8-20.8v-387.4c0-11.4 9.4-20.8 20.8-20.8zM512 106.001c11.6 0 20.8 9.4 20.8 20.8v387.4c0 11.6-9.4 20.8-20.8 20.8s-20.8-9.4-20.8-20.8v-387.4c0-11.4 9.2-20.8 20.8-20.8zM695.8 106.001c11.6 0 20.8 9.4 20.8 20.8v387.4c0 11.6-9.4 20.8-20.8 20.8-11.6 0-20.8-9.4-20.8-20.8v-387.4c-0.2-11.4 9.2-20.8 20.8-20.8z" />
<glyph unicode="&#xe942;" glyph-name="add-line" d="M916.122 960.001h-808.245c-59.584 0-107.878-48.503-107.878-107.878v-808.245c0-59.584 48.503-107.878 107.878-107.878h808.245c59.584 0 107.878 48.503 107.878 107.878v808.245c0 59.374-48.503 107.878-107.878 107.878zM972.779 43.879c0-31.151-25.506-56.657-56.657-56.657h-808.245c-31.151 0-56.657 25.506-56.657 56.657v808.245c0 31.151 25.506 56.657 56.657 56.657h808.245c31.151 0 56.657-25.506 56.657-56.657v-808.245zM705.385 473.507h-167.879v167.879c0 14.216-11.499 25.715-25.715 25.715s-25.715-11.499-25.715-25.715v-167.879h-167.879c-14.216 0-25.715-11.499-25.715-25.506 0-14.216 11.499-25.715 25.715-25.715h167.879v-167.879c0-14.216 11.499-25.715 25.715-25.715s25.715 11.499 25.715 25.715v167.879h167.879c14.216 0 25.715 11.499 25.715 25.715s-11.499 25.506-25.715 25.506z" />
</font>
</defs>
</svg>
